Хуже, чем ложь / Misconduct (Шинтаро Шимосава / Shintaro Shimosawa) [2016, США, Триллер, драма, HDRip] Dub (iTunes)

Reply to topic
 
Author
Message

Satyr ®

Gender: Unknown

Longevity: 11 years

Posts: 15401

Reputation: 55 [+] [-]

Satyr · Post 16-Dec-2016 20:00

[Quote] 

Хуже, чем ложь / Misconduct
Страна: США
Жанр: Триллер, драма
Год выпуска: 2016
Продолжительность: 01:45:54
Перевод: Профессиональный (дублированный) iTunes
Cубтитры: нет
Режиссер: Шинтаро Шимосава / Shintaro Shimosawa
В ролях: Элис Ив, Малин Акерман, Джулия Стайлз, Аль Пачино, Глен Пауэлл, Энтони Хопкинс, Джош Дюамель, Ли Бён Хон, Крис Маркетт, Шона Гастян...
Описание: Когда амбициозный молодой юрист берется за большое дело против влиятельного и безжалостного исполнительного директора крупной фармацевтической компании, он оказывается втянут в мир шантажа и коррупции.
Сэмпл: http://sendfile.su/1290617
Качество видео: HDRip
Формат видео: AVI
Видео: 640x272 (2.35:1), 23.976 fps, XviD build 73 ~848 kbps avg, 0.20 bit/pixel
Аудио: 48 kHz, MPEG Layer 3, 2 ch, ~128.00 kbps avg

MediaInfo

Общее
Полное имя : F:\Huge.chem.log'.2016.HDRip.740.[Один 777].avi
Формат : AVI
Формат/Информация : Audio Video Interleave
Размер файла : 747 Мбайт
Продолжительность : 1 ч. 45 м.
Общий поток : 986 Кбит/сек
Программа кодирования : VirtualDubMod 1.5.10.3 | www.virtualdub-fr.org || (build 2550/release)
Библиотека кодирования : VirtualDubMod build 2550/release
Видео
Идентификатор : 0
Формат : MPEG-4 Visual
Профиль формата : Advanced Simple@L5
Параметр BVOP формата : 1
Параметр QPel формата : Нет
Параметр GMC формата : Без точки перехода
Параметр матрицы формата : Default (H.263)
Идентификатор кодека : XVID
Идентификатор кодека/Подсказка : XviD
Продолжительность : 1 ч. 45 м.
Битрейт : 849 Кбит/сек
Ширина : 640 пикселей
Высота : 272 пикселя
Соотношение сторон : 2,35:1
Частота кадров : 23,976 (23976/1000) кадра/сек
Цветовое пространство : YUV
Субдискретизация насыщенности : 4:2:0
Битовая глубина : 8 бит
Тип развёртки : Прогрессивная
Метод сжатия : С потерями
Бит/(Пиксели*Кадры) : 0.203
Размер потока : 643 Мбайт (86%)
Библиотека кодирования : XviD 73
Аудио
Идентификатор : 1
Формат : MPEG Audio
Версия формата : Version 1
Профиль формата : Layer 3
Идентификатор кодека : 55
Идентификатор кодека/Подсказка : MP3
Продолжительность : 1 ч. 45 м.
Вид битрейта : Постоянный
Битрейт : 128 Кбит/сек
Каналы : 2 канала
Частота : 48,0 КГц
Метод сжатия : С потерями
Размер потока : 96,9 Мбайт (13%)
Выравнивание : Соединение по промежуткам
Продолжительность промежутка : 42 мс. (1,00 видеокадр)
Время предзагрузки промежутка : 504 мс.
Библиотека кодирования : LAME3.99r
Настройки программы : -m s -V 4 -q 2 -lowpass 17 -b 128

Скриншот c названием фильма

Скриншоты

[Profile]  [PM] 
Display posts:    
Reply to topic

Current time is: 21-Sep 05:52

All times are UTC + 2



You cannot post new topics in this forum
You cannot reply to topics in this forum
You cannot edit your posts in this forum
You cannot delete your posts in this forum
You cannot vote in polls in this forum
You cannot attach files in this forum
You cannot download files in this forum