Я – Болт / I Am Bolt (Бенжамин Тернер / Benjamin Turner, Гейб Тернер / Gabe Turner) [2016, Великобритания, спорт, BDRip] VO (Назаров)

Reply to topic
 
Author
Message

Satyr ®

Gender: Unknown

Longevity: 11 years

Posts: 15401

Reputation: 55 [+] [-]

Satyr · Post 16-Dec-2016 20:00

[Quote] 

Я – Болт / I Am Bolt
Страна: Великобритания
Студия: Fulwell 73
Жанр: Спорт
Год выпуска: 2016
Продолжительность: 01:47:22
Перевод: Одноголосый закадровый - Вадим Назаров
Cубтитры: нет
Оригинальная аудиодорожка: нет
Режиссер: Бенжамин Тернер / Benjamin Turner, Гейб Тернер / Gabe Turner
В ролях: Усэйн Болт, Пеле, Неймар, Серена Уильямс, Асафа Пауэлл, Себастьян Коу, Зигги Марли, Нас, Йохан Блейк
Описание: Усэйн Болт – единственный в мире спортсмен, выигравший спринтерские дистанции на трех Олимпийских играх подряд. Ему рукоплескали Пекин, Лондон и Рио. За свою пока еще продолжающуюся спортивную карьеру Болт установил 8 мировых рекордов и стал главным ямайским спринтером всех времен. Режиссеры Бенджамин и Гейб Тернер представляют захватывающий микс из трансляций и архивных кадров, которые со всей полнотой расскажут о том, что за человек Усэйн Болт и как ему дались все его огромные заслуги перед родиной и спортом. Этот фильм показывает Болта не только глазами его восхищенных товарищей – не менее великих спортсменов. Кое-что ямайский спринтер поведает о себе сам, оставляя, впрочем, больше загадок и вопросов, чем ответов. Оказывается, дома он очень любит полениться на диване и пить пиво с чипсами, что не мешает ему собрать волю в кулак и в очередной раз стать лучшим из лучших.
Дополнительная информация:
Автор релиза -
Заказ перевода у Вадима Назарова (декабрь 2016) - ylnian
За сборку дороги спасибо rammzez
Источник для рипа - Blu-Ray (EUR) - I Am Bolt 2016 1080p EUR Blu-ray AVC DTS-HD MA 5.1-TAPAS


Сэмпл: https://yadi.sk/i/an2uDEIz33Y9PG
Качество видео: BDRip
Формат видео: AVI
Видео: XviD, 720x400 (16:9), 23.976 fps, 1465 kbps, 0.212 bit/pixel
Аудио: Русский AC3, 48000 Гц, 6ch, 448 kbps

MediaInfo

General
Complete name : E:\I.Am.Bolt.2016.BDRip-ylnian.avi
Format : AVI
Format/Info : Audio Video Interleave
File size : 1.44 GiB
Duration : 1 h 47 min
Overall bit rate : 1 922 kb/s
Writing application : VirtualDubMod 1.5.10.2 (build 2540/release)
Writing library : VirtualDubMod build 2540/release
Video
ID : 0
Format : MPEG-4 Visual
Format profile : Advanced Simple@L5
Format settings, BVOP : 1
Format settings, QPel : No
Format settings, GMC : No warppoints
Format settings, Matrix : Default (MPEG)
Codec ID : XVID
Codec ID/Hint : XviD
Duration : 1 h 47 min
Bit rate : 1 465 kb/s
Width : 720 pixels
Height : 400 pixels
Display aspect ratio : 16:9
Frame rate : 23.976 (24000/1001) FPS
Color space : YUV
Chroma subsampling : 4:2:0
Bit depth : 8 bits
Scan type : Progressive
Compression mode : Lossy
Bits/(Pixel*Frame) : 0.212
Stream size : 1.10 GiB (76%)
Writing library : XviD 67
Audio
ID : 1
Format : AC-3
Format/Info : Audio Coding 3
Mode extension : CM (complete main)
Format settings, Endianness : Big
Codec ID : 2000
Duration : 1 h 47 min
Bit rate mode : Constant
Bit rate : 448 kb/s
Channel(s) : 6 channels
Channel positions : Front: L C R, Side: L R, LFE
Sampling rate : 48.0 kHz
Frame rate : 31.250 FPS (1536 spf)
Bit depth : 16 bits
Compression mode : Lossy
Delay relative to video : 16 ms
Stream size : 344 MiB (23%)
Alignment : Split accross interleaves
Interleave, duration : 42 ms (1.00 video frame)
Interleave, preload duratio : 500 ms

Скриншот c названием фильма

Скриншоты

[Profile]  [PM] 
Display posts:    
Reply to topic

Current time is: 27-Sep 12:34

All times are UTC + 2



You cannot post new topics in this forum
You cannot reply to topics in this forum
You cannot edit your posts in this forum
You cannot delete your posts in this forum
You cannot vote in polls in this forum
You cannot attach files in this forum
You cannot download files in this forum