Выбор / The Choice (Росс Кац / Ross Katz) [2016, США, мелодрама, драма, BDRip-AVC] Dub + Original + Sub Eng

Reply to topic
 
Author
Message

Satyr ®

Online

Gender: Unknown

Longevity: 11 years

Posts: 15401

Reputation: 55 [+] [-]

Satyr · Post 16-Dec-2016 20:00

[Quote] 

Выбор / The Choice- Страна: США | Nicholas Sparks Productions, Safran Company
Жанр: мелодрама, драма
Год выпуска: 2016
Продолжительность: 01:51:07
Перевод: Профессиональный (дублированный)
Cубтитры: английские
Оригинальная аудиодорожка: английский
Режиссер: Росс Кац / Ross Katz
В ролях: Александра Даддарио, Тереза Палмер, Мэгги Грэйс, Бенджамин Уокер, Том Уэллинг, Том Уилкинсон, Брэд Джеймс, Анна Энгер, Бретт Райс, Вилбур Фицджералд
Описание: Любовь? Серьезные отношения? Ответственность? Семья? Закоренелый холостяк Тревис Паркер считает, что все это не для него. У него есть отличная работа и верные друзья. Он увлекается охотой, рыбалкой, занимается экстремальными видами спорта — и избегает серьезных отношений. Но не родился еще на свет человек, которому удалось бы уйти от настоящей любви… Когда в доме по соседству поселяется тихая, замкнутая Габи, жизнь Тревиса меняется.
Сэмпл: http://sendfile.su/1290356
Качество видео: BDRip-AVC (The Choice (2016) BDRemux 1080p от ExKinoRay)
Формат видео: MKV
Видео: x264, 1152x478 (2.40:1) 23,976 fps, ~1295 kbps, 0,098 bit/pixel
Аудио 1: 48 kHz, AC3 Dolby Digital, 3/2 (L,C,R,l,r) + LFE ch, ~384 kbps [русский]
Аудио 2: 48 kHz, AC3 Dolby Digital, 2/0 (L,R) ch, ~192 kbps [английский]
Формат субтитров: softsub (SRT)

MediaInfo

General
Unique ID : 219990186643470029404815372542172042798 (0xA580919C67A86D178E8C20BEFFB5962E)
Format : Matroska
Format version : Version 4 / Version 2
File size : 1.45 GiB
Duration : 1h 51mn
Overall bit rate : 1 873 Kbps
Movie name : The.Choice.2016
Encoded date : UTC 2016-12-14 07:45:16
Writing application : mkvmerge v9.6.0 ('Slave To Your Mind') 64bit
Writing library : libebml v1.3.4 + libmatroska v1.4.5
Video #1
ID : 1
Format : AVC
Format/Info : Advanced Video Codec
Format profile : High@L4.1
Format settings, CABAC : Yes
Format settings, ReFrames : 11 frames
Codec ID : V_MPEG4/ISO/AVC
Duration : 1h 51mn
Bit rate : 1 295 Kbps
Width : 1 152 pixels
Height : 478 pixels
Display aspect ratio : 2.40:1
Frame rate mode : Constant
Frame rate : 23.976 (24000/1001) fps
Color space : YUV
Chroma subsampling : 4:2:0
Bit depth : 8 bits
Scan type : Progressive
Bits/(Pixel*Frame) : 0.098
Stream size : 1.00 GiB (69%)
Writing library : x264 core 146 r2538 121396c
Encoding settings : cabac=1 / ref=11 / deblock=1:-3:-2 / analyse=0x3:0x113 / me=umh / subme=10 / psy=1 / psy_rd=1.00:0.00 / mixed_ref=1 / me_range=32 / chroma_me=1 / trellis=2 / 8x8dct=1 / cqm=0 / deadzone=21,11 / fast_pskip=1 / chroma_qp_offset=-2 / threads=6 / lookahead_threads=1 / sliced_threads=0 / nr=0 / decimate=1 / interlaced=0 / bluray_compat=0 / constrained_intra=0 / bframes=12 / b_pyramid=2 / b_adapt=2 / b_bias=0 / direct=1 / weightb=1 / open_gop=0 / weightp=2 / keyint=250 / keyint_min=23 / scenecut=40 / intra_refresh=0 / rc_lookahead=50 / rc=2pass / mbtree=1 / bitrate=1295 / ratetol=1.0 / qcomp=0.60 / qpmin=0 / qpmax=69 / qpstep=4 / cplxblur=20.0 / qblur=0.5 / ip_ratio=1.40 / aq=3:1.00
Language : English
Default : Yes
Forced : No
Audio #2
ID : 2
Format : AC-3
Format/Info : Audio Coding 3
Mode extension : CM (complete main)
Format settings, Endianness : Big
Codec ID : A_AC3
Duration : 1h 51mn
Bit rate mode : Constant
Bit rate : 384 Kbps
Channel(s) : 6 channels
Channel positions : Front: L C R, Side: L R, LFE
Sampling rate : 48.0 KHz
Frame rate : 31.250 fps (1536 spf)
Compression mode : Lossy
Stream size : 305 MiB (21%)
Title : Dub
Language : Russian
Default : Yes
Forced : No
Audio #3
ID : 3
Format : AC-3
Format/Info : Audio Coding 3
Mode extension : CM (complete main)
Format settings, Endianness : Big
Codec ID : A_AC3
Duration : 1h 51mn
Bit rate mode : Constant
Bit rate : 192 Kbps
Channel(s) : 2 channels
Channel positions : Front: L R
Sampling rate : 48.0 KHz
Frame rate : 31.250 fps (1536 spf)
Compression mode : Lossy
Stream size : 153 MiB (10%)
Language : English
Default : No
Forced : No
Text #4
ID : 4
Format : UTF-8
Codec ID : S_TEXT/UTF8
Codec ID/Info : UTF-8 Plain Text
Duration : 1h 49mn
Bit rate : 63 bps
Count of elements : 1648
Stream size : 51.0 KiB (0%)
Title : Full
Language : English
Default : No
Forced : No

лог

raw [info]: 1152x478p 1:1 @ 24000/1001 fps (cfr)
x264 [info]: using SAR=1/1
x264 [info]: using cpu capabilities: MMX2 SSE2Fast SSSE3 SSE4.2 AVX XOP FMA4 FMA3 LZCNT BMI1
x264 [info]: profile High, level 4.1
x264 [info]: frame I:1177 Avg QP:16.80 size: 77730
x264 [info]: frame P:33121 Avg QP:20.42 size: 16970
x264 [info]: frame B:125543 Avg QP:23.73 size: 3389
x264 [info]: consecutive B-frames: 1.6% 2.5% 6.3% 18.3% 20.1% 36.9% 7.1% 2.0% 2.0% 1.0% 0.9% 0.4% 1.0%
x264 [info]: mb I I16..4: 13.6% 65.6% 20.7%
x264 [info]: mb P I16..4: 1.2% 5.1% 0.9% P16..4: 39.2% 19.9% 13.4% 0.0% 0.0% skip:20.3%
x264 [info]: mb B I16..4: 0.0% 0.3% 0.1% B16..8: 37.7% 4.7% 1.3% direct: 1.9% skip:54.0% L0:43.5% L1:50.0% BI: 6.5%
x264 [info]: 8x8 transform intra:69.0% inter:68.8%
x264 [info]: coded y,uvDC,uvAC intra: 74.6% 77.0% 50.9% inter: 10.4% 9.9% 2.0%
x264 [info]: i16 v,h,dc,p: 31% 16% 7% 47%
x264 [info]: i8 v,h,dc,ddl,ddr,vr,hd,vl,hu: 10% 9% 6% 9% 14% 14% 13% 12% 12%
x264 [info]: i4 v,h,dc,ddl,ddr,vr,hd,vl,hu: 9% 9% 4% 10% 15% 15% 13% 11% 13%
x264 [info]: i8c dc,h,v,p: 36% 24% 19% 20%
x264 [info]: Weighted P-Frames: Y:3.7% UV:1.8%
x264 [info]: ref P L0: 47.9% 11.7% 17.0% 5.8% 4.9% 3.4% 3.2% 1.6% 1.6% 1.3% 1.4% 0.2% 0.0%
x264 [info]: ref B L0: 76.6% 10.7% 5.1% 2.3% 1.6% 1.4% 1.1% 0.6% 0.4% 0.2%
x264 [info]: ref B L1: 92.3% 7.7%
x264 [info]: kb/s:1294.82
x264 [total]: encoded 159841 frames, 10.92 fps, 1294.83 kb/s

Скриншоты


[Profile]  [PM] 
Display posts:    
Reply to topic

Current time is: 20-Sep 23:16

All times are UTC + 2



You cannot post new topics in this forum
You cannot reply to topics in this forum
You cannot edit your posts in this forum
You cannot delete your posts in this forum
You cannot vote in polls in this forum
You cannot attach files in this forum
You cannot download files in this forum