Выбор / The Choice (Росс Катц / Ross Katz) [2016, США, мелодрама, HDRip] Dub

Reply to topic
 
Author
Message

Satyr ®

Gender: Unknown

Longevity: 11 years

Posts: 15401

Reputation: 55 [+] [-]

Satyr · Post 18-Dec-2016 00:45

[Quote] 

Выбор / The Choice
Страна: США
Жанр: Мелодрама
Год выпуска: 2016
Продолжительность: 01:51:06
Перевод: Профессиональный (дублированный)
Cубтитры: отсутствуют
Режиссёр: Росс Катц / Ross Katz
Актёры: Бенджамин Уокер, Тереза Палмер, Александра Даддарио, Мэгги Грэйс, Том Уилкинсон, Том Уэллинг, Джесси С. Бойд, Брэд Джеймс, Бретт Райс, Эшли ЛеКонте-Кэмпбелл, Шарон Блэквуд, Марти Стоунрок, Дайан Селлерс, Уилбур Фицджералд, Каллэн Уайт, и др.
Аннотация: Молодой врач-ветеринар живёт и горя почти не знает, почти вся жизнь сплошной праздник, он потерял счёт женщинам, уже почти и не помнит когда... И совсем никогда он не думал, что сможет связать себя священными узами брака с той одной единственной и неповторимой, которая была бы матерью его детей, и хозяйкой в его холостяцкой берлоге... Но вот однажды поздно вечером, к нему на территорию сопредельную с берлогой, напролом врывается разгневанная соседка, молодая и привлекательная, совсем недавно поселившаяся рядом, она настоятельно просит выключить громкую музыку... Стрела Амура поражает его прямо в сердце! Неожиданно и сразу наповал! Он даже испугаться не успел...

Качество видео: HDRip
Формат видео: AVI
Video: XviD 73 MPEG-4, 720x304 (2.35:1) 23.976 fps, ~1490 kbps avg, 0.284 bit/pixel
Аudio: AC-3 Dolby Digital, CBR 384 kbps 6 ch (Front: L C R, Side: L R, LFE) 48.0 KHz

MediaInfo

ОбщееПолное имя                               : D:\The_Choice_2016_HDRip_[torrentsland.com.ua].aviФормат                                   : AVIФормат/Информация                        : Audio Video InterleaveРазмер файла                             : 1,46 ГбайтПродолжительность                        : 1 ч. 51 м.Общий поток                              : 1881 Кбит/сек
ВидеоИдентификатор : 0Формат : MPEG-4 VisualПрофиль формата : Advanced Simple@L5Параметр BVOP формата : 1Параметр QPel формата : НетПараметр GMC формата : Без точки переходаПараметр матрицы формата : ВыборочнаяИдентификатор кодека : XVIDИдентификатор кодека/Подсказка : XviDПродолжительность : 1 ч. 51 м.Битрейт : 1490 Кбит/секШирина : 720 пикселейВысота : 304 пикселяСоотношение сторон : 2,35:1Частота кадров : 23,976 (24000/1001) кадра/секЦветовое пространство : YUVСубдискретизация насыщенности : 4:2:0Битовая глубина : 8 битТип развёртки : ПрогрессивнаяМетод сжатия : С потерямиБит/(Пиксели*Кадры) : 0.284Размер потока : 1,16 Гбайт (79%)Библиотека кодирования : XviD 73
АудиоИдентификатор : 1Формат : AC-3Формат/Информация : Audio Coding 3Расширение режима : CM (complete main)Параметр Endianness формата : BigИдентификатор кодека : 2000Продолжительность : 1 ч. 51 м.Вид битрейта : ПостоянныйБитрейт : 384 Кбит/секКаналы : 6 каналовРасположение каналов : Front: L C R, Side: L R, LFEЧастота : 48,0 КГцЧастота кадров : 31,250 кадров/сек (1536 spf)Битовая глубина : 16 битМетод сжатия : С потерямиРазмер потока : 305 Мбайт (20%)Выравнивание : Соединение по промежуткамПродолжительность промежутка : 64 мс. (1,53 видеокадра)Время предзагрузки промежутка : 192 мс.Заголовок : DVD

Скриншот c названием фильма

Скриншоты

[Profile]  [PM] 
Display posts:    
Reply to topic

Current time is: 24-Sep 23:56

All times are UTC + 2



You cannot post new topics in this forum
You cannot reply to topics in this forum
You cannot edit your posts in this forum
You cannot delete your posts in this forum
You cannot vote in polls in this forum
You cannot attach files in this forum
You cannot download files in this forum