Выбор / The Choice (Росс Катц / Ross Katz) [2016, США, мелодрама, HDRip] Dub

Reply to topic
 
Author
Message

Satyr ®

Gender: Unknown

Longevity: 11 years

Posts: 15401

Reputation: 55 [+] [-]

Satyr · Post 18-Dec-2016 00:45

[Quote] 

Выбор / The Choice
Страна: США
Жанр: Мелодрама
Год выпуска: 2016
Продолжительность: 01:51:06
Перевод: Профессиональный (дублированный)
Cубтитры: отсутствуют
Режиссёр: Росс Катц / Ross Katz
Актёры: Бенджамин Уокер, Тереза Палмер, Александра Даддарио, Мэгги Грэйс, Том Уилкинсон, Том Уэллинг, Джесси С. Бойд, Брэд Джеймс, Бретт Райс, Эшли ЛеКонте-Кэмпбелл, Шарон Блэквуд, Марти Стоунрок, Дайан Селлерс, Уилбур Фицджералд, Каллэн Уайт, и др.
Аннотация: Молодой врач-ветеринар живёт и горя почти не знает, почти вся жизнь сплошной праздник, он потерял счёт женщинам, уже почти и не помнит когда... И совсем никогда он не думал, что сможет связать себя священными узами брака с той одной единственной и неповторимой, которая была бы матерью его детей, и хозяйкой в его холостяцкой берлоге... Но вот однажды поздно вечером, к нему на территорию сопредельную с берлогой, напролом врывается разгневанная соседка, молодая и привлекательная, совсем недавно поселившаяся рядом, она настоятельно просит выключить громкую музыку... Стрела Амура поражает его прямо в сердце! Неожиданно и сразу наповал! Он даже испугаться не успел...

Качество видео: HDRip
Формат видео: AVI
Video: XviD 73 MPEG-4, 688x288 (2.40:1) 23.976 fps, ~804 kbps avg, 0.169 bit/pixel
Аudio: MP-3 Stereo, CBR 128 kbps 2 ch, 48.0 KHz

MediaInfo

ОбщееПолное имя                               : D:\The_Choice_2016_HDRip_[torrentsland.com.ua].aviФормат                                   : AVIФормат/Информация                        : Audio Video InterleaveРазмер файла                             : 748 МбайтПродолжительность                        : 1 ч. 51 м.Общий поток                              : 941 Кбит/секНазвание фильма                          : The_Choice_2016_HDRip_[torrentsland.com.ua]Режиссёр                                 : networkЖанр                                     : МелодрамаПрограмма кодирования                    : VirtualDubModRus 1.5.10.2 (build 2542/release)Формат оригинала/Имя                     : Фильмы 2016Правообладатель                          : networkПримечание                               : 17 декабря 2016 г.
ВидеоИдентификатор : 0Формат : MPEG-4 VisualПрофиль формата : Advanced Simple@L5Параметр BVOP формата : 1Параметр QPel формата : НетПараметр GMC формата : Без точки переходаПараметр матрицы формата : ВыборочнаяИдентификатор кодека : DX50Идентификатор кодека/Подсказка : DivX 5Продолжительность : 1 ч. 51 м.Битрейт : 804 Кбит/секШирина : 688 пикселейВысота : 288 пикселейСоотношение сторон : 2,40:1Частота кадров : 23,976 кадра/секЦветовое пространство : YUVСубдискретизация насыщенности : 4:2:0Битовая глубина : 8 битТип развёртки : ПрогрессивнаяМетод сжатия : С потерямиБит/(Пиксели*Кадры) : 0.169Размер потока : 639 Мбайт (85%)Библиотека кодирования : XviD 73
АудиоИдентификатор : 1Формат : MPEG AudioВерсия формата : Version 1Профиль формата : Layer 3Идентификатор кодека : 55Идентификатор кодека/Подсказка : MP3Продолжительность : 1 ч. 51 м.Вид битрейта : ПостоянныйБитрейт : 128 Кбит/секКаналы : 2 каналаЧастота : 48,0 КГцМетод сжатия : С потерямиРазмер потока : 102 Мбайт (14%)Выравнивание : Соединение по промежуткамПродолжительность промежутка : 42 мс. (1,00 видеокадр)Время предзагрузки промежутка : 504 мс.Библиотека кодирования : LAME3.99rНастройки программы : -m s -V 4 -q 2 -lowpass 17 -b 128

Скриншот c названием фильма

Скриншоты

[Profile]  [PM] 
Display posts:    
Reply to topic

Current time is: 22-Sep 16:58

All times are UTC + 2



You cannot post new topics in this forum
You cannot reply to topics in this forum
You cannot edit your posts in this forum
You cannot delete your posts in this forum
You cannot vote in polls in this forum
You cannot attach files in this forum
You cannot download files in this forum