Гений / Genius (Майкл Грандадж / Michael Grandage) [2016, Великобритания, США, драма, биография, BDRip-AVC] Dub + Original + Sub Eng

Reply to topic
 
Author
Message

Satyr ®

Gender: Unknown

Longevity: 11 years

Posts: 15401

Reputation: 55 [+] [-]

Satyr · Post 18-Dec-2016 00:45

[Quote] 

Гений / Genius- Страна: Великобритания, США | Desert Wolf Productions, Michael Grandage Company, Riverstone Pictures
Жанр: драма, биография
Год выпуска: 2016
Продолжительность: 01:44:00
Перевод: Профессиональный (дублированный) Blu-Ray RUS
Cубтитры: английские
Оригинальная аудиодорожка: английский
Режиссер: Майкл Грандадж / Michael Grandage
В ролях: Колин Фёрт, Николь Кидман, Лора Линни, Джуд Лоу, Доминик Уэст, Гай Пирс, Ванесса Кирби, Марк Арнольд, Джейн Перри, Бернард Коллако
Описание: История о непростой дружбе двух очень талантливых людей: писателя Томаса Вулфа и издателя Макса Перкинса, открывшего всему миру таких великих романистов, как Ф. Скотт Фицджеральд и Эрнест Хемингуэй.
Сэмпл: http://sendfile.su/1290836

Качество видео: BDRip-AVC (Genius 2016 Blu-ray disc 1080p [RUS])
Формат видео: MKV
Видео: x264, 1152x648 (2.40:1) 23,976 fps, ~1993 kbps, 0,111 bit/pixel
Аудио 1: 48 kHz, AC3 Dolby Digital, 3/2 (L,C,R,l,r) + LFE ch, ~448 kbps [русский]
Аудио 2: 48 kHz, AC3 Dolby Digital, 3/2 (L,C,R,l,r) + LFE ch, ~384 kbps [английский]
Формат субтитров: softsub (SRT)

MediaInfo

General
Unique ID : 170416437675947840689363888216137265594 (0x80350314A2276619AD629A9120F3F1BA)
Format : Matroska
Format version : Version 4 / Version 2
File size : 2.05 GiB
Duration : 1h 44mn
Overall bit rate : 2 824 Kbps
Movie name : Гений_Genius.2016
Encoded date : UTC 2016-12-16 05:10:03
Writing application : mkvmerge v9.6.0 ('Slave To Your Mind') 64bit
Writing library : libebml v1.3.4 + libmatroska v1.4.5
Video #1
ID : 1
Format : AVC
Format/Info : Advanced Video Codec
Format profile : High@L4.1
Format settings, CABAC : Yes
Format settings, ReFrames : 10 frames
Codec ID : V_MPEG4/ISO/AVC
Duration : 1h 44mn
Bit rate : 1 993 Kbps
Width : 1 152 pixels
Height : 648 pixels
Display aspect ratio : 16:9
Frame rate mode : Constant
Frame rate : 23.976 (24000/1001) fps
Color space : YUV
Chroma subsampling : 4:2:0
Bit depth : 8 bits
Scan type : Progressive
Bits/(Pixel*Frame) : 0.111
Stream size : 1.45 GiB (70%)
Writing library : x264 core 146 r2538 121396c
Encoding settings : cabac=1 / ref=10 / deblock=1:-3:-2 / analyse=0x3:0x113 / me=umh / subme=10 / psy=1 / psy_rd=1.00:0.00 / mixed_ref=1 / me_range=32 / chroma_me=1 / trellis=2 / 8x8dct=1 / cqm=0 / deadzone=21,11 / fast_pskip=1 / chroma_qp_offset=-2 / threads=6 / lookahead_threads=1 / sliced_threads=0 / nr=0 / decimate=1 / interlaced=0 / bluray_compat=0 / constrained_intra=0 / bframes=9 / b_pyramid=2 / b_adapt=2 / b_bias=0 / direct=1 / weightb=1 / open_gop=0 / weightp=2 / keyint=250 / keyint_min=23 / scenecut=40 / intra_refresh=0 / rc_lookahead=50 / rc=2pass / mbtree=1 / bitrate=1993 / ratetol=1.0 / qcomp=0.60 / qpmin=0 / qpmax=69 / qpstep=4 / cplxblur=20.0 / qblur=0.5 / ip_ratio=1.40 / aq=3:1.00
Language : English
Default : Yes
Forced : No
Audio #2
ID : 2
Format : AC-3
Format/Info : Audio Coding 3
Mode extension : CM (complete main)
Format settings, Endianness : Big
Codec ID : A_AC3
Duration : 1h 44mn
Bit rate mode : Constant
Bit rate : 448 Kbps
Channel(s) : 6 channels
Channel positions : Front: L C R, Side: L R, LFE
Sampling rate : 48.0 KHz
Frame rate : 31.250 fps (1536 spf)
Compression mode : Lossy
Stream size : 333 MiB (16%)
Title : BD RUS
Language : Russian
Default : Yes
Forced : No
Audio #3
ID : 3
Format : AC-3
Format/Info : Audio Coding 3
Mode extension : CM (complete main)
Format settings, Endianness : Big
Codec ID : A_AC3
Duration : 1h 44mn
Bit rate mode : Constant
Bit rate : 384 Kbps
Channel(s) : 6 channels
Channel positions : Front: L C R, Side: L R, LFE
Sampling rate : 48.0 KHz
Frame rate : 31.250 fps (1536 spf)
Compression mode : Lossy
Stream size : 286 MiB (14%)
Language : English
Default : No
Forced : No
Text #4
ID : 4
Format : UTF-8
Codec ID : S_TEXT/UTF8
Codec ID/Info : UTF-8 Plain Text
Duration : 1h 33mn
Bit rate : 65 bps
Count of elements : 1337
Stream size : 45.1 KiB (0%)
Language : English
Default : No
Forced : No

лог

raw [info]: 1152x648p 1:1 @ 24000/1001 fps (cfr)
x264 [info]: using SAR=1/1
x264 [info]: using cpu capabilities: MMX2 SSE2Fast SSSE3 SSE4.2 AVX XOP FMA4 FMA3 LZCNT BMI1
x264 [info]: profile High, level 4.1
x264 [info]: frame I:975 Avg QP:14.69 size: 81174
x264 [info]: frame P:30075 Avg QP:17.90 size: 25056
x264 [info]: frame B:118571 Avg QP:20.38 size: 6072
x264 [info]: consecutive B-frames: 1.3% 2.2% 5.5% 14.5% 16.8% 48.2% 5.4% 2.4% 1.7% 1.9%
x264 [info]: mb I I16..4: 9.0% 78.0% 13.0%
x264 [info]: mb P I16..4: 1.1% 6.7% 0.8% P16..4: 43.9% 23.3% 12.8% 0.0% 0.0% skip:11.5%
x264 [info]: mb B I16..4: 0.1% 0.4% 0.0% B16..8: 40.4% 7.3% 1.5% direct: 3.3% skip:47.0% L0:45.3% L1:48.5% BI: 6.2%
x264 [info]: 8x8 transform intra:78.1% inter:68.6%
x264 [info]: coded y,uvDC,uvAC intra: 79.5% 58.7% 28.4% inter: 16.6% 8.0% 0.5%
x264 [info]: i16 v,h,dc,p: 32% 13% 8% 47%
x264 [info]: i8 v,h,dc,ddl,ddr,vr,hd,vl,hu: 15% 9% 5% 9% 13% 13% 13% 12% 12%
x264 [info]: i4 v,h,dc,ddl,ddr,vr,hd,vl,hu: 13% 9% 4% 9% 15% 15% 14% 11% 12%
x264 [info]: i8c dc,h,v,p: 37% 29% 21% 12%
x264 [info]: Weighted P-Frames: Y:3.5% UV:0.4%
x264 [info]: ref P L0: 43.1% 9.8% 18.5% 7.0% 6.3% 4.4% 4.2% 2.2% 2.2% 2.0% 0.2% 0.0%
x264 [info]: ref B L0: 69.1% 13.1% 6.9% 3.3% 2.6% 2.1% 1.8% 0.7% 0.3%
x264 [info]: ref B L1: 91.8% 8.2%
x264 [info]: kb/s:1990.50
x264 [total]: encoded 149621 frames, 7.48 fps, 1990.50 kb/s

Скриншоты


[Profile]  [PM] 
Display posts:    
Reply to topic

Current time is: 18-Sep 16:48

All times are UTC + 2



You cannot post new topics in this forum
You cannot reply to topics in this forum
You cannot edit your posts in this forum
You cannot delete your posts in this forum
You cannot vote in polls in this forum
You cannot attach files in this forum
You cannot download files in this forum