Хуже, чем ложь / Misconduct (Шинтаро Шимосава / Shintaro Shimosawa) [2016, США, триллер, драма, BDRip-AVC] Dub + Original + Sub (Rus, Eng)

Reply to topic
 
Author
Message

Satyr ®

Gender: Unknown

Longevity: 11 years

Posts: 15401

Reputation: 55 [+] [-]

Satyr · Post 18-Dec-2016 17:10

[Quote] 

Хуже, чем ложь / Misconduct- Страна: США | Mike and Marty Productions
Жанр: триллер, драма
Год выпуска: 2016
Продолжительность: 01:45:54
Перевод: Профессиональный (дублированный)
Cубтитры: русские, английские
Оригинальная аудиодорожка: английский
Режиссер: Шинтаро Шимосава / Shintaro Shimosawa
В ролях: Элис Ив, Малин Акерман, Джулия Стайлз, Аль Пачино, Глен Пауэлл, Энтони Хопкинс, Джош Дюамель, Ли Бён Хон, Крис Маркетт, Шона Гастян
Описание: Когда амбициозный молодой юрист берется за большое дело против влиятельного и безжалостного исполнительного директора крупной фармацевтической компании, он оказывается втянут в мир шантажа и коррупции.
Сэмпл: http://sendfile.su/1291252
Качество видео: BDRip-AVC (Misconduct (2016) BDRemux 1080p rutor_org)
Формат видео: MKV
Видео: x264, 1152x480 (2.40:1) 23,976 fps, ~1196 kbps, 0,090 bit/pixel
Аудио 1: 48 kHz, AC3 Dolby Digital, 3/2 (L,C,R,l,r) + LFE ch, ~384 kbps [русский, iTunes Russia]
Аудио 2: 48 kHz, AC3 Dolby Digital, 3/2 (L,C,R,l,r) + LFE ch, ~384 kbps [английский]
Формат субтитров: softsub (SRT)

MediaInfo

General
Unique ID : 170516492768723478284549291751859440270 (0x8048482D734A99CAB4B6798438524A8E)
Format : Matroska
Format version : Version 4 / Version 2
File size : 1.45 GiB
Duration : 1h 45mn
Overall bit rate : 1 966 Kbps
Movie name : Misconduct.2016
Encoded date : UTC 2016-12-17 09:44:17
Writing application : mkvmerge v9.6.0 ('Slave To Your Mind') 64bit
Writing library : libebml v1.3.4 + libmatroska v1.4.5
Video #1
ID : 1
Format : AVC
Format/Info : Advanced Video Codec
Format profile : High@L4.1
Format settings, CABAC : Yes
Format settings, ReFrames : 10 frames
Codec ID : V_MPEG4/ISO/AVC
Duration : 1h 45mn
Bit rate : 1 196 Kbps
Width : 1 152 pixels
Height : 480 pixels
Display aspect ratio : 2.40:1
Frame rate mode : Constant
Frame rate : 23.976 (24000/1001) fps
Color space : YUV
Chroma subsampling : 4:2:0
Bit depth : 8 bits
Scan type : Progressive
Bits/(Pixel*Frame) : 0.090
Stream size : 906 MiB (61%)
Writing library : x264 core 146 r2538 121396c
Encoding settings : cabac=1 / ref=10 / deblock=1:-3:-2 / analyse=0x3:0x113 / me=umh / subme=10 / psy=1 / psy_rd=1.00:0.00 / mixed_ref=1 / me_range=32 / chroma_me=1 / trellis=2 / 8x8dct=1 / cqm=0 / deadzone=21,11 / fast_pskip=1 / chroma_qp_offset=-2 / threads=6 / lookahead_threads=1 / sliced_threads=0 / nr=0 / decimate=1 / interlaced=0 / bluray_compat=0 / constrained_intra=0 / bframes=11 / b_pyramid=2 / b_adapt=2 / b_bias=0 / direct=1 / weightb=1 / open_gop=0 / weightp=2 / keyint=250 / keyint_min=23 / scenecut=40 / intra_refresh=0 / rc_lookahead=50 / rc=2pass / mbtree=1 / bitrate=1196 / ratetol=1.0 / qcomp=0.60 / qpmin=0 / qpmax=69 / qpstep=4 / cplxblur=20.0 / qblur=0.5 / ip_ratio=1.40 / aq=3:1.00
Language : English
Default : Yes
Forced : No
Audio #2
ID : 2
Format : AC-3
Format/Info : Audio Coding 3
Mode extension : CM (complete main)
Format settings, Endianness : Big
Codec ID : A_AC3
Duration : 1h 45mn
Bit rate mode : Constant
Bit rate : 384 Kbps
Channel(s) : 6 channels
Channel positions : Front: L C R, Side: L R, LFE
Sampling rate : 48.0 KHz
Frame rate : 31.250 fps (1536 spf)
Compression mode : Lossy
Stream size : 291 MiB (20%)
Title : DUB | iTunes
Language : Russian
Default : Yes
Forced : Yes
Audio #3
ID : 3
Format : AC-3
Format/Info : Audio Coding 3
Mode extension : CM (complete main)
Format settings, Endianness : Big
Codec ID : A_AC3
Duration : 1h 45mn
Bit rate mode : Constant
Bit rate : 384 Kbps
Channel(s) : 6 channels
Channel positions : Front: L C R, Side: L R, LFE
Sampling rate : 48.0 KHz
Frame rate : 31.250 fps (1536 spf)
Compression mode : Lossy
Stream size : 291 MiB (20%)
Language : English
Default : No
Forced : No
Text #4
ID : 4
Format : UTF-8
Codec ID : S_TEXT/UTF8
Codec ID/Info : UTF-8 Plain Text
Duration : 1h 40mn
Bit rate : 90 bps
Count of elements : 1215
Stream size : 66.9 KiB (0%)
Title : full
Language : Russian
Default : No
Forced : No
Text #5
ID : 5
Format : UTF-8
Codec ID : S_TEXT/UTF8
Codec ID/Info : UTF-8 Plain Text
Duration : 1h 40mn
Bit rate : 56 bps
Count of elements : 1178
Stream size : 41.8 KiB (0%)
Title : full
Language : English
Default : No
Forced : No
Text #6
ID : 6
Format : UTF-8
Codec ID : S_TEXT/UTF8
Codec ID/Info : UTF-8 Plain Text
Duration : 1h 40mn
Bit rate : 58 bps
Count of elements : 1278
Stream size : 43.1 KiB (0%)
Title : SDH
Language : English
Default : No
Forced : No

лог

raw [info]: 1152x480p 1:1 @ 24000/1001 fps (cfr)
x264 [info]: using SAR=1/1
x264 [info]: using cpu capabilities: MMX2 SSE2Fast SSSE3 SSE4.2 AVX XOP FMA4 FMA3 LZCNT BMI1
x264 [info]: profile High, level 4.1
x264 [info]: frame I:989 Avg QP:14.09 size: 75985
x264 [info]: frame P:28598 Avg QP:17.35 size: 16408
x264 [info]: frame B:122766 Avg QP:20.17 size: 3301
x264 [info]: consecutive B-frames: 1.4% 1.3% 3.5% 10.0% 15.8% 49.4% 9.8% 2.0% 2.8% 1.4% 1.7% 1.1%
x264 [info]: mb I I16..4: 8.9% 72.3% 18.7%
x264 [info]: mb P I16..4: 1.3% 3.8% 0.6% P16..4: 43.9% 23.6% 15.4% 0.0% 0.0% skip:11.3%
x264 [info]: mb B I16..4: 0.0% 0.1% 0.0% B16..8: 42.9% 6.2% 1.2% direct: 1.8% skip:47.7% L0:46.5% L1:49.2% BI: 4.2%
x264 [info]: 8x8 transform intra:68.1% inter:65.1%
x264 [info]: coded y,uvDC,uvAC intra: 73.8% 76.9% 52.9% inter: 10.2% 8.6% 1.1%
x264 [info]: i16 v,h,dc,p: 34% 15% 11% 40%
x264 [info]: i8 v,h,dc,ddl,ddr,vr,hd,vl,hu: 11% 7% 7% 10% 14% 14% 12% 12% 12%
x264 [info]: i4 v,h,dc,ddl,ddr,vr,hd,vl,hu: 10% 7% 5% 12% 16% 14% 13% 11% 12%
x264 [info]: i8c dc,h,v,p: 38% 25% 22% 16%
x264 [info]: Weighted P-Frames: Y:2.5% UV:1.4%
x264 [info]: ref P L0: 43.7% 6.8% 19.4% 7.4% 6.6% 4.7% 4.5% 2.3% 2.3% 2.0% 0.2% 0.0%
x264 [info]: ref B L0: 64.5% 14.7% 8.0% 4.0% 3.0% 2.5% 2.1% 0.8% 0.3%
x264 [info]: ref B L1: 89.0% 11.0%
x264 [info]: kb/s:1195.61
x264 [total]: encoded 152353 frames, 9.93 fps, 1195.61 kb/s

Скриншоты


[Profile]  [PM] 
Display posts:    
Reply to topic

Current time is: 24-Sep 22:34

All times are UTC + 2



You cannot post new topics in this forum
You cannot reply to topics in this forum
You cannot edit your posts in this forum
You cannot delete your posts in this forum
You cannot vote in polls in this forum
You cannot attach files in this forum
You cannot download files in this forum