Абсолютная власть / Imperium (Даниэль Рагуссис / Daniel Ragussis) [2016, США, триллер, драма, криминал, HDRip] MVO (iTunes)

Reply to topic
 
Author
Message

Satyr ®

Gender: Unknown

Longevity: 11 years

Posts: 15401

Reputation: 55 [+] [-]

Satyr · Post 18-Dec-2016 17:10

[Quote] 

Абсолютная власть / Imperium
«Защити свою страну!»
- Год выхода: 2016
Выпущено: США / Atomic Features, Green-Light International
Жанр: триллер, драма, криминал
Продолжительность: 01:48:36
Перевод: Профессиональный (двухголосый закадровый)
Субтитры: нет-Режиссер:
Даниэль Рагуссис / Daniel Ragussis-В ролях:
Дэниэл Рэдклифф, Тони Коллетт, Трэйси Леттс, Сэм Трэммелл, Нестор Карбонелл, Крис Салливан, Сет Нумрик, Павел Жайда, Девин Друид, Берн Горман-О фильме:
Агент ФБР под прикрытием внедряется в банду нео-нацистов для предотвращения теракта. Каково это — жить каждый день в потоке насилия и жестокости, отстаивать свое право кулаками, выбрить череп и закрыть душу? Что такое нео-нацизм -это не только хулиганы и скинхеды, но и благополучные господа в дорогих костюмах, готовые уничтожить город ради идеи.-Релиз групп | | IMDB | КиноПоиск | Сэмпл |-Качество: HDRip [Imperium.2016.720p.BluRay.DTS.x264-HiDt]
Формат: AVI
Видео: 720x304 (2.37:1), 23.976 fps, XviD build 67 ~1464 kbps avg, 0.28 bit/pixel
Аудио: 48 kHz, AC3 Dolby Digital, 3/2 (L,C,R,l,r) + LFE ch, ~384 kbps avg - iTunes Russia
-

Скриншоты

-

MediaInfo

Общее
Полное имя                               : D:\Absolutnaya_vlast`_2016_HDRip_iT_by_Dalemake.avi
Формат                                   : AVI
Формат/Информация                        : Audio Video Interleave
Размер файла                             : 1,41 Гбайт
Продолжительность                        : 1 ч. 48 м.
Общий поток                              : 1858 Кбит/сек
Программа кодирования                    : VirtualDubMod 1.5.10.3 | www.virtualdub-fr.org || (build 2550/release)
Библиотека кодирования                   : VirtualDubMod build 2550/release
Видео
Идентификатор                            : 0
Формат                                   : MPEG-4 Visual
Профиль формата                          : Advanced Simple@L5
Параметр BVOP формата                    : 1
Параметр QPel формата                    : Нет
Параметр GMC формата                     : Без точки перехода
Параметр матрицы формата                 : Выборочная
Идентификатор кодека                     : XVID
Идентификатор кодека/Подсказка           : XviD
Продолжительность                        : 1 ч. 48 м.
Битрейт                                  : 1465 Кбит/сек
Ширина                                   : 720 пикселей
Высота                                   : 304 пикселя
Соотношение сторон                       : 2,35:1
Частота кадров                           : 23,976 кадра/сек
Цветовое пространство                    : YUV
Субдискретизация насыщенности            : 4:2:0
Битовая глубина                          : 8 бит
Тип развёртки                            : Прогрессивная
Метод сжатия                             : С потерями
Бит/(Пиксели*Кадры)                      : 0.279
Размер потока                            : 1,11 Гбайт (79%)
Библиотека кодирования                   : XviD 67
Аудио
Идентификатор                            : 1
Формат                                   : AC-3
Формат/Информация                        : Audio Coding 3
Расширение режима                        : CM (complete main)
Параметр Endianness формата              : Big
Идентификатор кодека                     : 2000
Продолжительность                        : 1 ч. 48 м.
Вид битрейта                             : Постоянный
Битрейт                                  : 384 Кбит/сек
Каналы                                   : 6 каналов
Расположение каналов                     : Front: L C R, Side: L R, LFE
Частота                                  : 48,0 КГц
Битовая глубина                          : 16 бит
Метод сжатия                             : С потерями
Размер потока                            : 298 Мбайт (21%)
Выравнивание                             : Разделение по промежуткам
Продолжительность промежутка             : 42  мс. (1,00 видеокадр)
Время предзагрузки промежутка            : 500  мс.
-
[Profile]  [PM] 
Display posts:    
Reply to topic

Current time is: 21-Sep 04:38

All times are UTC + 2



You cannot post new topics in this forum
You cannot reply to topics in this forum
You cannot edit your posts in this forum
You cannot delete your posts in this forum
You cannot vote in polls in this forum
You cannot attach files in this forum
You cannot download files in this forum