Суини Тодд, демон-парикмахер с Флит-стрит / Sweeney Todd: The Demon Barber of Fleet Street (2007 г., мюзикл, ужасы, триллер, драма, BDRip/720p)

Reply to topic
 
Author
Message

LORN-V ®

Gender: Male

Longevity: 7 years 1 month

Posts: 904

Reputation: 5 [+] [-]

Location: Munchen

LORN-V · Post 20-Apr-2013 17:15

[Quote] 

Суини Тодд, демон-парикмахер с Флит-стрит / Sweeney Todd: The Demon Barber of Fleet Street- Основная информация:-Год выпуска: 2007
Страна: США, Великобритания
Жанр: мюзикл, ужасы, триллер, драма
Продолжительность: 01:56:24
Режиссер: Тим Бёртон / Tim Burton-Перевод 1: Профессиональный (многоголосый закадровый)
Перевод 2: Профессиональный (многоголосый закадровый)
Перевод 3: Профессиональный (многоголосый закадровый)
Перевод 4: Профессиональный (многоголосый закадровый)
Перевод 5: Авторский (одноголосый закадровый)
Перевод 6: Авторский (одноголосый закадровый)
Cубтитры: русские (Позитив {Forced, Full}), русские (Авторские), украинские (R5), английские
Оригинальная аудиодорожка: английская-В ролях: Джонни Депп (Sweeney Todd), Хелена Бонем Картер (Mrs. Lovett), Алан Рикман (Judge Turpin), Тимоти Сполл (Beadle), Саша Барон Коэн (Pirelli), Джейми Кэмпбелл Бауэр (Anthony), Лора Мишель Келли (Lucy / Beggar Woman), Джэйн Вайзенер (Johanna), Эд Сандерс (Toby), Грейси Мэй (Baby Johanna), Ава Мэй (Baby Johanna), Габриэлла Фриман (Baby Johanna)-Описание:-Когда-то в Лондоне жил молодой и наивный брадобрей Бенджамин Баркер. Он был женат на прелестной женщине по имени Люси, которая родила ему такую же прелестную дочку. На его беду, прелесть его жены также оценил сластолюбивый судья Терпин - и отправил Бенджамина Баркера на пожизненную каторгу, чтобы без помех овладеть его женой.
Пятнадцать лет спустя Баркер бежал с каторги, под именем Суини Тодда добрался до Лондона - и не нашел у себя дома ни жены, ни дочери. Миссис Ловетт, хозяйка маленькой пекарни этажом ниже, вначале не узнавшая его, рассказала ему его собственную историю. Тодд был уничтожен и поклялся страшно отомстить своим обидчикам - судье Терпину и приставу Бэмфорду, который помогал судье в его недостойных делах. По совету миссис Ловетт, не скрывающей своей привязанности к беглецу, он вернулся к своему прежнему ремеслу - снова стал брадобреем в надежде когда-нибудь заполучить к себе в заведение судью и прикончить его.-
MPAA: R- Лицам до 17 лет обязательно присутствие взрослого
Sample-Доп. информация:-Качество: BDRip/720p
Видео: 1280x720, AVC, 23,976 fps, 5555 kbps
Контейнер: MKV
Видео: 1280x720, AVC, 23,976 fps, 5555 kbps
Аудио №1: русский / AC3 / 5.1 / 48 kHz / 640 kbps / 16 bit || MVO {Киномания - без перевода песен}
Аудио №2: русский / DTS / 5.1 / 48 kHz / 755 kbps / 24 bit || MVO {Арс-Студио - с переводом песен}
Аудио №3: русский / AC3 / 5.1 / 48 kHz / 448 kbps / 16 bit || MVO {Позитив - с переводом песен}
Аудио №4: русский / AC3 / 5.1 / 48 kHz / 448 kbps / 16 bit || MVO {Позитив - без перевода песен}
Аудио №5: русский / AC3 / 5.1 / 48 kHz / 448 kbps / 16 bit || AVO {Сербин - с переводом песен}
Аудио №6: русский / AC3 / 5.1 / 48 kHz / 448 kbps / 16 bit || AVO {Королев - с переводом песен}
Аудио №7: английский / AC3 / 5.1 / 48 kHz / 640 kbps / 16 bit
Субтитры: русские (Позитив {Forced, Full}), русские (Авторские), украинские (R5), английские
Навигация по главам: есть
Релиз от: HQFans {by IBodyB}

x264.log

---[NoImage] x264 [info]: frame I:1484 Avg QP:14.09 size:140151
---[NoImage] x264 [info]: frame P:34442 Avg QP:16.60 size: 54702
---[NoImage] x264 [info]: frame B:131483 Avg QP:18.96 size: 20932
---[NoImage] x264 [info]: consecutive B-frames: 1.8% 2.3% 5.6% 12.8% 24.1% 44.7% 3.9% 3.6% 1.2%
---[NoImage] x264 [info]: mb I I16..4: 19.0% 62.3% 18.7%
---[NoImage] x264 [info]: mb P I16..4: 2.3% 15.4% 1.1% P16..4: 28.0% 36.1% 12.8% 0.0% 0.0% skip: 4.3%
---[NoImage] x264 [info]: mb B I16..4: 0.2% 1.4% 0.1% B16..8: 36.9% 20.8% 3.5% direct: 8.4% skip:28.7% L0:41.5% L1:44.4% BI:14.1%
---[NoImage] x264 [info]: 8x8 transform intra:79.7% inter:51.2%
---[NoImage] x264 [info]: direct mvs spatial:98.6% temporal:1.4%
---[NoImage] x264 [info]: coded y,uvDC,uvAC intra: 88.2% 72.7% 52.2% inter: 34.5% 15.2% 6.3%
---[NoImage] x264 [info]: i16 v,h,dc,p: 56% 7% 13% 23%
---[NoImage] x264 [info]: i8 v,h,dc,ddl,ddr,vr,hd,vl,hu: 9% 7% 13% 10% 13% 12% 12% 12% 13%
---[NoImage] x264 [info]: i4 v,h,dc,ddl,ddr,vr,hd,vl,hu: 10% 7% 11% 9% 14% 13% 12% 11% 13%
---[NoImage] x264 [info]: i8c dc,h,v,p: 42% 27% 18% 12%
---[NoImage] x264 [info]: Weighted P-Frames: Y:8.2% UV:3.6%
---[NoImage] x264 [info]: ref P L0: 43.7% 8.2% 20.3% 7.8% 7.0% 5.0% 4.7% 2.8% 0.5% 0.0%
---[NoImage] x264 [info]: ref B L0: 75.2% 12.1% 5.6% 3.0% 2.3% 1.3% 0.5%
---[NoImage] x264 [info]: ref B L1: 92.7% 7.3%
---[NoImage] x264 [info]: kb/s:5550.24
---[NoImage] encoded 167409 frames, 14.29 fps, 5550.24 kb/s
--[Information] Final statistics
---[Information] [05.01.2013 13:00:41] Video Bitrate Desired: 5555 kbit/s

MediaInfo

Format : Matroska
Format version : Version 4 / Version 2
File size : 7.63 GiB
Duration : 1h 56mn
Overall bit rate : 9 385 Kbps
Movie name : Суини Тодд, демон-парикмахер с Флит-стрит__Sweeney Todd The Demon Barber of Fleet Street [2007.BDRip.720p.4MVO.AVO.VO.Eng.Subs]-HQFans
Encoded date : UTC 2010-02-22 21:41:31
Writing application : mkvmerge v5.9.0 ('On The Loose') built on Dec 9 2012 15:37:01
Writing library : libebml v1.3.0 + libmatroska v1.4.0
Video
ID : 1
Format : AVC
Format/Info : Advanced Video Codec
Format profile : High@L4.1
Format settings, CABAC : Yes
Format settings, ReFrames : 8 frames
Codec ID : V_MPEG4/ISO/AVC
Duration : 1h 56mn
Bit rate : 5 555 Kbps
Width : 1 280 pixels
Height : 720 pixels
Display aspect ratio : 16:9
Frame rate mode : Constant
Frame rate : 23.976 fps
Color space : YUV
Chroma subsampling : 4:2:0
Bit depth : 8 bits
Scan type : Progressive
Bits/(Pixel*Frame) : 0.251
Stream size : 4.36 GiB (57%)
Title : by IBodyB
Writing library : x264 core 129 r2230 1cffe9f
Encoding settings : cabac=1 / ref=8 / deblock=1:-3:-3 / analyse=0x3:0x113 / me=umh / subme=11 / psy=1 / psy_rd=1.00:0.10 / mixed_ref=1 / me_range=48 / chroma_me=1 / trellis=2 / 8x8dct=1 / cqm=0 / deadzone=21,11 / fast_pskip=0 / chroma_qp_offset=-3 / threads=18 / lookahead_threads=3 / sliced_threads=0 / nr=0 / decimate=0 / interlaced=0 / bluray_compat=0 / constrained_intra=0 / bframes=8 / b_pyramid=2 / b_adapt=2 / b_bias=0 / direct=3 / weightb=1 / open_gop=0 / weightp=2 / keyint=230 / keyint_min=23 / scenecut=40 / intra_refresh=0 / rc_lookahead=40 / rc=2pass / mbtree=0 / bitrate=5555 / ratetol=1.0 / qcomp=0.60 / qpmin=0 / qpmax=69 / qpstep=4 / cplxblur=20.0 / qblur=0.5 / vbv_maxrate=62500 / vbv_bufsize=50000 / nal_hrd=none / ip_ratio=1.40 / pb_ratio=1.30 / aq=1:1.00
Language : English
Default : Yes
Forced : Yes
Color primaries : BT.709
Transfer characteristics : BT.709
Matrix coefficients : BT.709
Audio #1
ID : 2
Format : AC-3
Format/Info : Audio Coding 3
Mode extension : CM (complete main)
Format settings, Endianness : Big
Codec ID : A_AC3
Duration : 1h 56mn
Bit rate mode : Constant
Bit rate : 640 Kbps
Channel(s) : 6 channels
Channel positions : Front: L C R, Side: L R, LFE
Sampling rate : 48.0 KHz
Bit depth : 16 bits
Compression mode : Lossy
Stream size : 533 MiB (7%)
Title : MVO {Киномания - без перевода песен} [AC3 5.1@640kbps/16-bit]
Language : Russian
Default : Yes
Forced : Yes
Audio #2
ID : 3
Format : DTS
Format/Info : Digital Theater Systems
Mode : 16
Format settings, Endianness : Big
Codec ID : A_DTS
Duration : 1h 56mn
Bit rate mode : Constant
Bit rate : 768 Kbps
Channel(s) : 6 channels
Channel positions : Front: L C R, Side: L R, LFE
Sampling rate : 48.0 KHz
Bit depth : 24 bits
Compression mode : Lossy
Stream size : 639 MiB (8%)
Title : MVO {Арс-Студио} [DTS 5.1@755kbps/24-bit]
Language : Russian
Default : No
Forced : No
Audio #3
ID : 4
Format : AC-3
Format/Info : Audio Coding 3
Mode extension : CM (complete main)
Format settings, Endianness : Big
Codec ID : A_AC3
Duration : 1h 56mn
Bit rate mode : Constant
Bit rate : 448 Kbps
Channel(s) : 6 channels
Channel positions : Front: L C R, Side: L R, LFE
Sampling rate : 48.0 KHz
Bit depth : 16 bits
Compression mode : Lossy
Stream size : 373 MiB (5%)
Title : MVO {Позитив - с переводом песен} [AC3 5.1@448kbps/16-bit]
Language : Russian
Default : No
Forced : No
Audio #4
ID : 5
Format : AC-3
Format/Info : Audio Coding 3
Mode extension : CM (complete main)
Format settings, Endianness : Big
Codec ID : A_AC3
Duration : 1h 56mn
Bit rate mode : Constant
Bit rate : 448 Kbps
Channel(s) : 6 channels
Channel positions : Front: L C R, Side: L R, LFE
Sampling rate : 48.0 KHz
Bit depth : 16 bits
Compression mode : Lossy
Stream size : 373 MiB (5%)
Title : MVO {Позитив - без перевода песен} [AC3 5.1@448kbps/16-bit]
Language : Russian
Default : No
Forced : No
Audio #5
ID : 6
Format : AC-3
Format/Info : Audio Coding 3
Mode extension : CM (complete main)
Format settings, Endianness : Big
Codec ID : A_AC3
Duration : 1h 56mn
Bit rate mode : Constant
Bit rate : 448 Kbps
Channel(s) : 6 channels
Channel positions : Front: L C R, Side: L R, LFE
Sampling rate : 48.0 KHz
Bit depth : 16 bits
Compression mode : Lossy
Stream size : 373 MiB (5%)
Title : AVO {Сербин - с переводом песен} [AC3 5.1@448kbps/16-bit]
Language : Russian
Default : No
Forced : No
Audio #6
ID : 7
Format : AC-3
Format/Info : Audio Coding 3
Mode extension : CM (complete main)
Format settings, Endianness : Big
Codec ID : A_AC3
Duration : 1h 56mn
Bit rate mode : Constant
Bit rate : 448 Kbps
Channel(s) : 6 channels
Channel positions : Front: L C R, Side: L R, LFE
Sampling rate : 48.0 KHz
Bit depth : 16 bits
Compression mode : Lossy
Stream size : 373 MiB (5%)
Title : AVO {Королев - с переводом песен} [AC3 5.1@448kbps/16-bit]
Language : Russian
Default : No
Forced : No
Audio #7
ID : 8
Format : AC-3
Format/Info : Audio Coding 3
Mode extension : CM (complete main)
Format settings, Endianness : Big
Codec ID : A_AC3
Duration : 1h 56mn
Bit rate mode : Constant
Bit rate : 640 Kbps
Channel(s) : 6 channels
Channel positions : Front: L C R, Side: L R, LFE
Sampling rate : 48.0 KHz
Bit depth : 16 bits
Compression mode : Lossy
Stream size : 533 MiB (7%)
Title : Original [AC3 5.1@640kbps/16-bit]
Language : English
Default : No
Forced : No
Text #1
ID : 9
Format : UTF-8
Codec ID : S_TEXT/UTF8
Codec ID/Info : UTF-8 Plain Text
Title : Pozitiv, Forced
Language : Russian
Default : Yes
Forced : Yes
Text #2
ID : 10
Format : UTF-8
Codec ID : S_TEXT/UTF8
Codec ID/Info : UTF-8 Plain Text
Title : Pozitiv, Full
Language : Russian
Default : No
Forced : No
Text #3
ID : 11
Format : UTF-8
Codec ID : S_TEXT/UTF8
Codec ID/Info : UTF-8 Plain Text
Title : AVO, Full
Language : Russian
Default : No
Forced : No
Text #4
ID : 12
Format : UTF-8
Codec ID : S_TEXT/UTF8
Codec ID/Info : UTF-8 Plain Text
Title : R5, Full
Language : Ukrainian
Default : No
Forced : No
Text #5
ID : 13
Format : ASS
Codec ID : S_TEXT/ASS
Codec ID/Info : Advanced Sub Station Alpha
Compression mode : Lossless
Title : Full
Language : English
Default : No
Forced : No
Text #6
ID : 14
Format : ASS
Codec ID : S_TEXT/ASS
Codec ID/Info : Advanced Sub Station Alpha
Compression mode : Lossless
Title : SDH-Full
Language : English
Default : No
Forced : No
Menu
00:00:00.000 : :Chapter 01
00:03:27.790 : :Chapter 02
00:08:38.017 : :Chapter 03
00:11:50.042 : :Chapter 04
00:16:36.662 : :Chapter 05
00:21:36.628 : :Chapter 06
00:24:08.280 : :Chapter 07
00:25:04.336 : :Chapter 08
00:30:01.800 : :Chapter 09
00:34:52.924 : :Chapter 10
00:39:32.370 : :Chapter 11
00:45:05.536 : :Chapter 12
00:51:14.905 : :Chapter 13
00:56:10.700 : :Chapter 14
01:01:41.030 : :Chapter 15
01:05:13.075 : :Chapter 16
01:11:05.094 : :Chapter 17
01:19:07.075 : :Chapter 18
01:21:46.234 : :Chapter 19
01:28:26.801 : :Chapter 20
01:34:36.003 : :Chapter 21
01:42:32.813 : :Chapter 22
01:46:10.530 : :Chapter 23
01:51:43.863 : :Chapter 24
01:56:22.141 : :Chapter 25
-Скриншоты:-

Скриншоты

-
[Profile]  [PM] 
Display posts:    
Reply to topic

Current time is: 28-May 07:31

All times are UTC + 2



You cannot post new topics in this forum
You cannot reply to topics in this forum
You cannot edit your posts in this forum
You cannot delete your posts in this forum
You cannot vote in polls in this forum
You cannot attach files in this forum
You cannot download files in this forum