Воображариум / Imaginaerum (Стобе Харью) [2012 г., Мюзикл, Фэнтези, Драма, HDRip, Дубляж, Чистый звук]

Reply to topic
 
Author
Message

LORN-V ®

Gender: Male

Longevity: 7 years 5 months

Posts: 904

Reputation: 5 [+] [-]

Location: Munchen

LORN-V · Post 18-Aug-2013 16:28

[Quote] 

Воображариум / Imaginaerum- -Основная информация:-Год выпуска: 2012
Страна: Финляндия, Канада / Caramel Film, Scene Nation, Solar Films
Жанр: Мюзикл, Фэнтези, Драма,
Продолжительность: 01:25:44
Перевод: Дубляж [Чистый звук]
Режиссер: Стобе Харью-В ролях: Марианн Фарли, Куинн Лорд, Фрэнсис З. МакКарти, Илка Вилли, Джоэнна Нойес, Кеянна Филдинг, Стефани Демерс, Рон Лиа, Хелен Робитейлл, Туомас Холопайнен,-Описание:-Кто из нас в детстве не мечтал попасть в волшебную страну? В страну, где все возможно. Где исполняются самые
несбыточные мечты, встречаются необыкновенные существа и происходит самое настоящее Волшебство. Теперь ваши
мечты могут осуществиться! Не важно сколько вам лет. Не важно верите ли вы в говорящих снеговиков и в то, что люди
могут летать. Просто приоткройте эту дверь и перед вами окажется Воображариум, где все возможно.- -Доп. информация:-Качество: HDRip
Формат: AVI
Видео кодек: XviD
Аудио кодек: AC3, MP3
Видео: 720x304 (2.37:1), 23.976 fps, XviD build 50 ~1823 kbps avg, 0.35 bit/pixel
Аудио#1: 48 kHz, MPEG Layer 3, 2 ch, ~128.00 kbps avg (Русский)
Аудио#2: 48 kHz, AC3 Dolby Digital, 3/2 (L,C,R,l,r) + LFE ch, ~320 kbps (Английский)

MediaInfo

Общее
Полное имя                               : D:ПрограммыМои загрузкиVoobrajarium.2012.D.HDRip.1400MB.avi
Формат                                   : AVI
Формат/Информация                        : Audio Video Interleave
Размер файла                             : 1,37 Гбайт
Продолжительность                        : 1 ч. 25 м.
Общий поток                              : 2287 Кбит/сек
Программа кодирования                    : VirtualDubMod 1.5.10.2 (build 2540/release)
Библиотека кодирования                   : VirtualDubMod build 2540/release
Видео
Идентификатор                            : 0
Формат                                   : MPEG-4 Visual
Профиль формата                          : Advanced Simple@L5
Параметр BVOP формата                    : 2
Параметр QPel формата                    : Нет
Параметр GMC формата                     : Без точки перехода
Параметр матрицы формата                 : Default (H.263)
Идентификатор кодека                     : XVID
Идентификатор кодека/Подсказка           : XviD
Продолжительность                        : 1 ч. 25 м.
Битрейт                                  : 1825 Кбит/сек
Ширина                                   : 720 пикселей
Высота                                   : 304 пикселя
Соотношение сторон                       : 2,35:1
Частота кадров                           : 23,976 кадра/сек
Цветовое пространство                    : YUV
Субдискретизация насыщенности            : 4:2:0
Битовая глубина                          : 8 бит
Тип развёртки                            : Прогрессивная
Метод сжатия                             : С потерями
Бит/(Пиксели*Кадры)                      : 0.348
Размер потока                            : 1,09 Гбайт (80%)
Библиотека кодирования                   : XviD 1.2.1 (UTC 2008-12-04)
Аудио #1
Идентификатор                            : 1
Формат                                   : MPEG Audio
Версия формата                           : Version 1
Профиль формата                          : Layer 3
Режим                                    : Joint stereo
Расширение режима                        : MS Stereo
Идентификатор кодека                     : 55
Идентификатор кодека/Подсказка           : MP3
Продолжительность                        : 1 ч. 25 м.
Вид битрейта                             : Постоянный
Битрейт                                  : 128 Кбит/сек
Каналы                                   : 2 канала
Частота                                  : 48,0 КГц
Метод сжатия                             : С потерями
Размер потока                            : 78,5 Мбайт (6%)
Выравнивание                             : Соединение по промежуткам
Продолжительность промежутка             : 42  мс. (1,00 видеокадр)
Время предзагрузки промежутка            : 504  мс.
Аудио #2
Идентификатор                            : 2
Формат                                   : AC-3
Формат/Информация                        : Audio Coding 3
Расширение режима                        : CM (complete main)
Параметр Endianness формата              : Big
Идентификатор кодека                     : 2000
Продолжительность                        : 1 ч. 25 м.
Вид битрейта                             : Постоянный
Битрейт                                  : 320 Кбит/сек
Каналы                                   : 6 каналов
Расположение каналов                     : Front: L C R, Side: L R, LFE
Частота                                  : 48,0 КГц
Битовая глубина                          : 16 бит
Метод сжатия                             : С потерями
Размер потока                            : 196 Мбайт (14%)
Выравнивание                             : Разделение по промежуткам
Продолжительность промежутка             : 42  мс. (1,00 видеокадр)
Время предзагрузки промежутка            : 500  мс.
--

Скриншоты

--
[Profile]  [PM] 
Display posts:    
Reply to topic

Current time is: 28-Sep 19:36

All times are UTC + 2



You cannot post new topics in this forum
You cannot reply to topics in this forum
You cannot edit your posts in this forum
You cannot delete your posts in this forum
You cannot vote in polls in this forum
You cannot attach files in this forum
You cannot download files in this forum