Воображариум / Imaginaerum (Стобе Харью / Stobe Harju) [2012, фэнтези, приключения, мюзикл, драма, DVD5] R5

Reply to topic
 
Author
Message

LORN-V ®

Gender: Male

Longevity: 7 years 5 months

Posts: 904

Reputation: 5 [+] [-]

Location: Munchen

LORN-V · Post 21-Aug-2013 11:33

[Quote] 

Воображариум / Imaginaerum-«Мир, в котором фантазии оживают»- -Основная информация:-Страна: Канада, Финляндия
Студия: Caramel Film, Scene Nation, Solar Films
Жанр: фэнтези, приключения, мюзикл, драма
Год выпуска: 2012
Мировая премьера: 10 ноября 2012
Российская премьера: 6 июня 2013
Дата выхода DVD: 15 августа 2013
Продолжительность: 01:22:13
Перевод: Профессиональный (дублированный) [Лицензия]
Cубтитры: нет
Оригинальная аудиодорожка: нет
Режиссер: Стобе Харью / Stobe Harju
Бонусы: нет-В ролях: Марианн Фарли, ,уинн Лорд, Фрэнсис З. МакКарти, Илка Вилли, Джоэнна Нойес, Кеянна Филдинг, Стефани Демерс, Рон Лиа, Хелен Робитейлл, Туомас Холопайнен...-Описание:-Кто из нас в детстве не мечтал попасть в волшебную страну? В страну, где все возможно. Где исполняются самые несбыточные мечты, встречаются необыкновенные существа и происходит самое настоящее Волшебство. Теперь ваши мечты могут осуществиться! Не важно сколько вам лет. Не важно верите ли вы в говорящих снеговиков и в то, что люди могут летать. Просто приоткройте эту дверь и перед вами окажется Воображариум, где все возможно.- -Доп. информация:-Релиз группы:
Качество: DVD5 R5
Формат: DVD-Video
Видео кодек: MPEG2
Аудио кодек: AC3
Видео: PAL 16:9 (720x576(0.515)) MPEG Video, 25,000 кадр/сек, 5343 Кбит/сек
Аудио: Russian (Dolby AC3, 6 ch) 448 Кбит/сек, 48,0 КГц

DVDInfo

Title: Voobrajarium.2012.DVD5
Size: 3.75 Gb ( 3 931 648,00 KBytes ) - DVD-5
Enabled regions: 1, 2, 3, 4, 5, 6, 7, 8
VTS_01 :
Play Length: 00:00:19
Video: PAL 16:9 (720x576) VBR, Auto Pan&Scan, Auto Letterboxed
Audio:
Not specified (Dolby AC3, 2 ch)
VTS_02 :
Play Length: 01:22:13
Video: PAL 16:9 (720x576) VBR, Auto Letterboxed
Audio:
Not specified (Dolby AC3, 6 ch)
* Menus Information *
VIDEO_TS Menu
Video:
PAL 16:9 (720x576) VBR
Auto Pan&Scan, Auto Letterboxed
Russian Language Unit :
Title Menu
VTS_01 Menu
Video:
PAL 16:9 (720x576) VBR
Auto Pan&Scan, Auto Letterboxed
Audio:
Not specified (Dolby AC3, 6 ch)
Russian Language Unit :
Root Menu
VTS_02 Menu
Video:
PAL 4:3 (720x576) VBR
Russian Language Unit :
Root Menu

MediaInfo

Общее
Полное имя : M:Новинки 2013Voobrajarium.2012.DVD5VIDEO_TSVTS_02_1.VOB
Формат : MPEG-PS
Размер файла : 1024 Мбайт
Продолжительность : 24 м.
Режим общего битрейта : Переменный
Общий поток : 5909 Кбит/сек
Видео
Идентификатор : 224 (0xE0)
Формат : MPEG Video
Версия формата : Version 2
Профиль формата : Main@Main
Параметр BVOP формата : Да
Параметр матрицы формата : Выборочная
Параметр GOP формата : M=3, N=15
Продолжительность : 24 м.
Вид битрейта : Переменный
Битрейт : 5343 Кбит/сек
Максимальный битрейт : 9000 Кбит/сек
Ширина : 720 пикселей
Высота : 576 пикселей
Соотношение сторон : 16:9
Частота кадров : 25,000 кадров/сек
Стандарт вещания : PAL
Цветовое пространство : YUV
Субдискретизация насыщенности : 4:2:0
Битовая глубина : 8 бит
Тип развёртки : Чересстрочная
Порядок развёртки : Верхнее поле первое
Метод сжатия : С потерями
Бит/(Пиксели*Кадры) : 0.515
TimeCode_FirstFrame : 00:00:00:00
TimeCode_Source : Group of pictures header
Размер потока : 926 Мбайт (90%)
Аудио
Идентификатор : 189 (0xBD)-128 (0x80)
Формат : AC-3
Формат/Информация : Audio Coding 3
Расширение режима : CM (complete main)
Параметр Endianness формата : Big
Режим смешивания : DVD-Video
Продолжительность : 24 м.
Вид битрейта : Постоянный
Битрейт : 448 Кбит/сек
Каналы : 6 каналов
Расположение каналов : Front: L C R, Side: L R, LFE
Частота : 48,0 КГц
Битовая глубина : 16 бит
Метод сжатия : С потерями
Размер потока : 77,6 Мбайт (8%)

Скриншоты меню

--

Скриншоты фильма


--
[Profile]  [PM] 

@Bun4ikov

Gender: Unknown

Longevity: 2 years 10 months

Posts: 3

Reputation: 0 [+] [-]

@Bun4ikov · Post 18-Nov-2017 12:23 (after 4 years 2 months)

[Quote] 

Что за ерунда? Четыре мюзикла на огромный торрент. Где Todd с Горшком? Где Последнее испытание? Где Планета факиров? Почему последняя раздача 2013 годом? Куда катится мир?
[Profile]  [PM] 
Display posts:    
Reply to topic

Current time is: 28-Sep 21:48

All times are UTC + 2



You cannot post new topics in this forum
You cannot reply to topics in this forum
You cannot edit your posts in this forum
You cannot delete your posts in this forum
You cannot vote in polls in this forum
You cannot attach files in this forum
You cannot download files in this forum