Короткое замыкание / Short Circuit (Джон Бэдхэм / John Badham) [1986, США, фантастика, комедия, семейный, Blu-ray>DVD9 (Custom)] MVO + DUB + AVO + AVO + AVO + Original Eng + Sub (Rus, Eng)

Reply to topic
 
Author
Message

Faust ®

Gender: Unknown

Longevity: 9 years 6 months

Posts: 14955

Reputation: 0 [+] [-]

Faust · Post 25-May-2014 00:55

[Quote] 

Короткое замыкание / Short Circuit
Страна: США
Студия: David Foster Productions, PSO
Жанр: фантастика, комедия, семейный
Год выпуска: 1986
Продолжительность: 01:38:28
Перевод : Профессиональный (Многоголосый закадровый)
Перевод : Профессиональный (Дубляж)
Перевод : Авторский (Одноголосый закадровый) (Ю. Живов)
Перевод : Авторский (Одноголосый закадровый) (А.Дольский)
Перевод : Авторский (Одноголосый закадровый) (С.Кузнецов)
Cубтитры: русские, английские, немецкие
Оригинальная аудиодорожка: английский
Режиссер: Джон Бэдхэм / John Badham
В ролях: Элли Шиди, Стив Гуттенберг, Фишер Стивенс, Остин Пендлтон, Дж. У. Бейли, Брайан МакНамара, Тим Блэйни, Марвин Дж. МакИнтайр, Джон Гарбер, Пенни Сантон
Описание: Разряд молнии попадает в робота под номером 5, и он оживает наподобие создания Франкенштейна. Вся штука в том, что его создатель и те, кто замыслил использовать робота в военных целях, не подозревали даже, какой могучий заряд человеколюбия и добра заложен в этой, казалось бы, безмозглой и бессердечной железяке.
Доп. информация: Материал взят с Blu-ray скаченного в сети.
Многоголоска, дубляж и Живов с этого BD-Remux. Спасибо Voland_.
Кузнецов и Дольский отсюда. Спасибо JUSTKANT.
Видео сжато Rhozet Carbon Coder в CBR 8000 по инструкции Mikky72
Диск собран в DvdReMakePro. Главы расставил как на Blu-ray.
Отдельное спасибо AlsKnight за вовремя оказанную помощь и ZVNV который стойко выдержал пытку глупыми вопросамиРелиз-группы: только для
-
Бонусы: Нет
Меню: есть, анимированное, озвученое, английское.
Сэмпл: http://www.sendspace.com/file/ohngeq

Тип релиза: DVD9 (Custom)
Контейнер: DVD-Video
Видео: NTSC 16:9 (720x480) VBR Auto Letterboxed
Аудио 1: Russian AC3, 2.0 / 48 kHz / 384 kbps |Многоголосый|
Аудио 2: Russian AC3, 2.0 / 48 kHz / 192 kbps |Дубляж| со встаками одноголосого
Аудио 3: Russian AC3, 2.0 / 48 kHz / 384 kbps |Авторский| Ю. Живов
Аудио 4: Russian AC3, 2.0 / 48 kHz / 192 kbps |Авторский| А. Дольский
Аудио 5: Russian AC3, 2.0 / 48 kHz / 192 kbps |Авторский| С. Кузнецов
Аудио 6: English AC3, 5.1 / 48 kHz / 448 kbps |Оригинал|
Субтитры : Русские 2 варианта. Английские. Немецкие
Дополнительная информация по релизу : К сожалению дубляж тот который есть Со вставками Живова. Будут варианты заменить всегда можно. Многоголоска и Живов были наложены на "дутую" английскую дорожку. Соответственно переведены в стерео.

BDInfo исходника

Disc Title: Short Circuit 1986 1080p Blu-ray Ger VC-1 DTS-HD MA 5.1
Disc Size: 19 581 865 663 bytes
Protection: AACS
BD-Java: Yes
Extras: 50Hz Content
BDInfo: 0.5.8
Notes:
BDINFO HOME:
Cinema Squid
http://www.cinemasquid.com/blu-ray/tools/bdinfo
INCLUDES FORUMS REPORT FOR:
AVS Forum Blu-ray Audio and Video Specifications Thread
http://www.avsforum.com/avs-vb/showthread.php?t=1155731
********************
PLAYLIST: 00003.MPLS
********************
Total   Video
Title                                                           Codec   Length  Movie Size      Disc Size       Bitrate Bitrate Main Audio Track                          Secondary Audio Track
-----                                                           ------  ------- --------------  --------------  ------- ------- ------------------                        ---------------------
00003.MPLS                                                      VC-1    1:38:33 17 863 557 120  19 581 865 663  24,17   18,00   DTS-HD Master 5.1 2354Kbps (48kHz/16-bit)
DISC INFO:
Disc Title:     Short Circuit 1986 1080p Blu-ray Ger VC-1 DTS-HD MA 5.1
Disc Size:      19 581 865 663 bytes
Protection:     AACS
BD-Java:        Yes
Extras:         50Hz Content
BDInfo:         0.5.8
PLAYLIST REPORT:
Name:                   00003.MPLS
Length:                 1:38:33.741 (h:m:s.ms)
Size:                   17 863 557 120 bytes
Total Bitrate:          24,17 Mbps
VIDEO:
Codec                   Bitrate             Description
-----                   -------             -----------
VC-1 Video              18002 kbps          1080p / 23,976 fps / 16:9 / Advanced Profile 3
AUDIO:
Codec                           Language        Bitrate         Description
-----                           --------        -------         -----------
DTS-HD Master Audio             German          2354 kbps       5.1 / 48 kHz / 2354 kbps / 16-bit (DTS Core: 5.1 / 48 kHz / 1509 kbps / 16-bit)
DTS-HD Master Audio             English         2215 kbps       5.1 / 48 kHz / 2215 kbps / 16-bit (DTS Core: 5.1 / 48 kHz / 1509 kbps / 16-bit)
SUBTITLES:
Codec                           Language        Bitrate         Description
-----                           --------        -------         -----------
Presentation Graphics           German          58,103 kbps
FILES:
Name            Time In         Length          Size            Total Bitrate
----            -------         ------          ----            -------------
00003.M2TS      0:00:00.000     1:38:33.741     17 863 557 120  24 165
CHAPTERS:
Number          Time In         Length          Avg Video Rate  Max 1-Sec Rate  Max 1-Sec Time  Max 5-Sec Rate  Max 5-Sec Time  Max 10Sec Rate  Max 10Sec Time  Avg Frame Size  Max Frame Size  Max Frame Time
------          -------         ------          --------------  --------------  --------------  --------------  --------------  --------------  --------------  --------------  --------------  --------------
1               0:00:00.000     0:06:37.814     17 092 kbps     37 348 kbps     00:03:45.808    29 356 kbps     00:03:45.767    24 378 kbps     00:03:43.973    89 100 bytes    316 465 bytes   00:03:46.017
2               0:06:37.814     0:07:04.173     18 589 kbps     42 833 kbps     00:10:25.082    30 576 kbps     00:10:24.290    27 967 kbps     00:10:20.286    96 916 bytes    286 258 bytes   00:09:35.491
3               0:13:41.987     0:07:45.715     19 102 kbps     29 225 kbps     00:18:51.922    27 408 kbps     00:18:50.671    26 070 kbps     00:18:45.624    99 591 bytes    295 981 bytes   00:15:23.839
4               0:21:27.703     0:16:04.672     17 700 kbps     29 785 kbps     00:23:19.106    29 075 kbps     00:23:23.693    28 876 kbps     00:23:18.772    92 279 bytes    292 729 bytes   00:23:27.823
5               0:37:32.375     0:18:48.377     17 837 kbps     38 160 kbps     00:47:27.761    28 001 kbps     00:47:24.675    25 557 kbps     00:47:18.877    92 992 bytes    355 173 bytes   00:39:00.921
6               0:56:20.752     0:15:04.028     17 522 kbps     34 812 kbps     01:02:20.027    28 434 kbps     01:02:08.683    25 778 kbps     01:02:11.936    91 354 bytes    289 712 bytes   01:06:14.512
7               1:11:24.780     0:06:46.614     18 886 kbps     31 107 kbps     01:13:14.890    26 016 kbps     01:13:12.346    24 287 kbps     01:13:38.205    98 462 bytes    333 967 bytes   01:15:41.286
8               1:18:11.395     0:03:33.129     17 442 kbps     24 669 kbps     01:19:56.833    19 262 kbps     01:19:55.874    18 886 kbps     01:21:34.514    90 933 bytes    218 010 bytes   01:20:25.779
9               1:21:44.524     0:05:22.363     19 025 kbps     22 052 kbps     01:22:29.861    21 498 kbps     01:22:16.264    21 189 kbps     01:22:11.718    99 189 bytes    207 600 bytes   01:24:56.257
10              1:27:06.888     0:05:38.212     17 542 kbps     34 636 kbps     01:31:10.339    28 133 kbps     01:31:10.089    23 882 kbps     01:31:09.380    91 456 bytes    257 130 bytes   01:31:10.631
11              1:32:45.101     0:02:20.932     16 267 kbps     24 439 kbps     01:33:47.913    21 703 kbps     01:33:45.620    19 638 kbps     01:33:45.619    84 806 bytes    241 690 bytes   01:33:37.069
12              1:35:06.033     0:03:27.707     19 660 kbps     27 083 kbps     01:36:18.481    23 990 kbps     01:36:25.863    22 899 kbps     01:36:18.481    102 517 bytes   300 032 bytes   01:36:10.806
STREAM DIAGNOSTICS:
File            PID             Type            Codec           Language                Seconds                 Bitrate                 Bytes           Packets
----            ---             ----            -----           --------                --------------          --------------          -------------   -----
00003.M2TS      4113 (0x1011)   0xEA            VC-1                                    5913,574                18 003                  13 307 625 457  72 409 435
00003.M2TS      4352 (0x1100)   0x86            DTS-HD MA       deu (German)            5913,574                2 354                   1 740 385 624   10 381 813
00003.M2TS      4353 (0x1101)   0x86            DTS-HD MA       eng (English)           5913,574                2 215                   1 637 172 064   9 808 272
00003.M2TS      4608 (0x1200)   0x90            PGS             deu (German)            5913,574                58                      42 950 702      241 722
QUICK SUMMARY:
Disc Title: Short Circuit 1986 1080p Blu-ray Ger VC-1 DTS-HD MA 5.1
Disc Size: 19 581 865 663 bytes
Protection: AACS
BD-Java: Yes
Playlist: 00003.MPLS
Size: 17 863 557 120 bytes
Length: 1:38:33.741
Total Bitrate: 24,17 Mbps
Video: VC-1 Video / 18002 kbps / 1080p / 23,976 fps / 16:9 / Advanced Profile 3
Audio: German / DTS-HD Master Audio / 5.1 / 48 kHz / 2354 kbps / 16-bit (DTS Core: 5.1 / 48 kHz / 1509 kbps / 16-bit)
Audio: English / DTS-HD Master Audio / 5.1 / 48 kHz / 2215 kbps / 16-bit (DTS Core: 5.1 / 48 kHz / 1509 kbps / 16-bit)
Subtitle: German / 58,103 kbps
********************
PLAYLIST: 00206.MPLS
********************
Total   Video
Title                                                           Codec   Length  Movie Size      Disc Size       Bitrate Bitrate Main Audio Track                          Secondary Audio Track
-----                                                           ------  ------- --------------  --------------  ------- ------- ------------------                        ---------------------
00206.MPLS                                                      MPEG-2  0:03:25 168 763 392     19 581 865 663  6,56    5,99    DD AC3 2.0 192Kbps
DISC INFO:
Disc Title:     Short Circuit 1986 1080p Blu-ray Ger VC-1 DTS-HD MA 5.1
Disc Size:      19 581 865 663 bytes
Protection:     AACS
BD-Java:        Yes
Extras:         50Hz Content
BDInfo:         0.5.8
PLAYLIST REPORT:
Name:                   00206.MPLS
Length:                 0:03:25.720 (h:m:s.ms)
Size:                   168 763 392 bytes
Total Bitrate:          6,56 Mbps
VIDEO:
Codec                   Bitrate             Description
-----                   -------             -----------
MPEG-2 Video            5988 kbps           576i / 25 fps / 4:3
AUDIO:
Codec                           Language        Bitrate         Description
-----                           --------        -------         -----------
Dolby Digital Audio             German          192 kbps        2.0 / 48 kHz / 192 kbps
FILES:
Name            Time In         Length          Size            Total Bitrate
----            -------         ------          ----            -------------
00012.M2TS      0:00:00.000     0:03:25.720     168 763 392     6 563
CHAPTERS:
Number          Time In         Length          Avg Video Rate  Max 1-Sec Rate  Max 1-Sec Time  Max 5-Sec Rate  Max 5-Sec Time  Max 10Sec Rate  Max 10Sec Time  Avg Frame Size  Max Frame Size  Max Frame Time
------          -------         ------          --------------  --------------  --------------  --------------  --------------  --------------  --------------  --------------  --------------  --------------
1               0:00:00.000     0:03:25.720     5 988 kbps      8 550 kbps      00:00:02.720    7 432 kbps      00:00:25.640    7 267 kbps      00:00:20.560    29 940 bytes    99 348 bytes    00:01:12.000
STREAM DIAGNOSTICS:
File            PID             Type            Codec           Language                Seconds                 Bitrate                 Bytes           Packets
----            ---             ----            -----           --------                --------------          --------------          -------------   -----
00012.M2TS      4113 (0x1011)   0x02            MPEG-2                                  205,680                 5 989                   153 982 968     839 913
00012.M2TS      4352 (0x1100)   0x81            AC3             deu (German)            205,680                 192                     4 937 472       32 145
QUICK SUMMARY:
Disc Title: Short Circuit 1986 1080p Blu-ray Ger VC-1 DTS-HD MA 5.1
Disc Size: 19 581 865 663 bytes
Protection: AACS
BD-Java: Yes
Playlist: 00206.MPLS
Size: 168 763 392 bytes
Length: 0:03:25.720
Total Bitrate: 6,56 Mbps
Video: MPEG-2 Video / 5988 kbps / 576i / 25 fps / 4:3
Audio: German / Dolby Digital Audio / 2.0 / 48 kHz / 192 kbps
********************
PLAYLIST: 00207.MPLS
********************
Total   Video
Title                                                           Codec   Length  Movie Size      Disc Size       Bitrate Bitrate Main Audio Track                          Secondary Audio Track
-----                                                           ------  ------- --------------  --------------  ------- ------- ------------------                        ---------------------
00207.MPLS                                                      MPEG-2  0:02:44 134 602 752     19 581 865 663  6,57    5,99    DD AC3 2.0 192Kbps
DISC INFO:
Disc Title:     Short Circuit 1986 1080p Blu-ray Ger VC-1 DTS-HD MA 5.1
Disc Size:      19 581 865 663 bytes
Protection:     AACS
BD-Java:        Yes
Extras:         50Hz Content
BDInfo:         0.5.8
PLAYLIST REPORT:
Name:                   00207.MPLS
Length:                 0:02:44.000 (h:m:s.ms)
Size:                   134 602 752 bytes
Total Bitrate:          6,57 Mbps
VIDEO:
Codec                   Bitrate             Description
-----                   -------             -----------
MPEG-2 Video            5992 kbps           576i / 25 fps / 4:3
AUDIO:
Codec                           Language        Bitrate         Description
-----                           --------        -------         -----------
Dolby Digital Audio             German          192 kbps        2.0 / 48 kHz / 192 kbps / Dolby Surround
FILES:
Name            Time In         Length          Size            Total Bitrate
----            -------         ------          ----            -------------
00013.M2TS      0:00:00.000     0:02:44.000     134 602 752     6 566
CHAPTERS:
Number          Time In         Length          Avg Video Rate  Max 1-Sec Rate  Max 1-Sec Time  Max 5-Sec Rate  Max 5-Sec Time  Max 10Sec Rate  Max 10Sec Time  Avg Frame Size  Max Frame Size  Max Frame Time
------          -------         ------          --------------  --------------  --------------  --------------  --------------  --------------  --------------  --------------  --------------  --------------
1               0:00:00.000     0:02:44.000     5 992 kbps      9 006 kbps      00:02:07.039    7 864 kbps      00:02:34.159    7 046 kbps      00:02:29.239    29 958 bytes    147 040 bytes   00:02:42.640
STREAM DIAGNOSTICS:
File            PID             Type            Codec           Language                Seconds                 Bitrate                 Bytes           Packets
----            ---             ----            -----           --------                --------------          --------------          -------------   -----
00013.M2TS      4113 (0x1011)   0x02            MPEG-2                                  163,920                 5 994                   122 826 732     669 928
00013.M2TS      4352 (0x1100)   0x81            AC3             deu (German)            163,920                 192                     3 936 000       25 625
QUICK SUMMARY:
Disc Title: Short Circuit 1986 1080p Blu-ray Ger VC-1 DTS-HD MA 5.1
Disc Size: 19 581 865 663 bytes
Protection: AACS
BD-Java: Yes
Playlist: 00207.MPLS
Size: 134 602 752 bytes
Length: 0:02:44.000
Total Bitrate: 6,57 Mbps
Video: MPEG-2 Video / 5992 kbps / 576i / 25 fps / 4:3
Audio: German / Dolby Digital Audio / 2.0 / 48 kHz / 192 kbps / Dolby Surround
********************
PLAYLIST: 00208.MPLS
********************
Total   Video
Title                                                           Codec   Length  Movie Size      Disc Size       Bitrate Bitrate Main Audio Track                          Secondary Audio Track
-----                                                           ------  ------- --------------  --------------  ------- ------- ------------------                        ---------------------
00208.MPLS                                                      MPEG-2  0:02:30 197 326 848     19 581 865 663  10,52   9,78    DD AC3 2.0 192Kbps
DISC INFO:
Disc Title:     Short Circuit 1986 1080p Blu-ray Ger VC-1 DTS-HD MA 5.1
Disc Size:      19 581 865 663 bytes
Protection:     AACS
BD-Java:        Yes
Extras:         50Hz Content
BDInfo:         0.5.8
PLAYLIST REPORT:
Name:                   00208.MPLS
Length:                 0:02:30.000 (h:m:s.ms)
Size:                   197 326 848 bytes
Total Bitrate:          10,52 Mbps
VIDEO:
Codec                   Bitrate             Description
-----                   -------             -----------
MPEG-2 Video            9785 kbps           576i / 25 fps / 16:9
AUDIO:
Codec                           Language        Bitrate         Description
-----                           --------        -------         -----------
Dolby Digital Audio             German          192 kbps        2.0 / 48 kHz / 192 kbps / Dolby Surround
FILES:
Name            Time In         Length          Size            Total Bitrate
----            -------         ------          ----            -------------
00014.M2TS      0:00:00.000     0:02:30.000     197 326 848     10 524
CHAPTERS:
Number          Time In         Length          Avg Video Rate  Max 1-Sec Rate  Max 1-Sec Time  Max 5-Sec Rate  Max 5-Sec Time  Max 10Sec Rate  Max 10Sec Time  Avg Frame Size  Max Frame Size  Max Frame Time
------          -------         ------          --------------  --------------  --------------  --------------  --------------  --------------  --------------  --------------  --------------  --------------
1               0:00:00.000     0:02:30.000     9 785 kbps      15 289 kbps     00:00:49.519    13 218 kbps     00:00:59.199    11 983 kbps     00:00:55.040    48 923 bytes    153 396 bytes   00:02:27.000
STREAM DIAGNOSTICS:
File            PID             Type            Codec           Language                Seconds                 Bitrate                 Bytes           Packets
----            ---             ----            -----           --------                --------------          --------------          -------------   -----
00014.M2TS      4113 (0x1011)   0x02            MPEG-2                                  149,880                 9 793                   183 462 764     999 264
00014.M2TS      4352 (0x1100)   0x81            AC3             deu (German)            149,880                 192                     3 600 384       23 440
QUICK SUMMARY:
Disc Title: Short Circuit 1986 1080p Blu-ray Ger VC-1 DTS-HD MA 5.1
Disc Size: 19 581 865 663 bytes
Protection: AACS
BD-Java: Yes
Playlist: 00208.MPLS
Size: 197 326 848 bytes
Length: 0:02:30.000
Total Bitrate: 10,52 Mbps
Video: MPEG-2 Video / 9785 kbps / 576i / 25 fps / 16:9
Audio: German / Dolby Digital Audio / 2.0 / 48 kHz / 192 kbps / Dolby Surround
********************
PLAYLIST: 00203.MPLS
********************
Total   Video
Title                                                           Codec   Length  Movie Size      Disc Size       Bitrate Bitrate Main Audio Track                          Secondary Audio Track
-----                                                           ------  ------- --------------  --------------  ------- ------- ------------------                        ---------------------
00203.MPLS                                                      MPEG-2  0:02:12 110 886 912     19 581 865 663  6,70    6,12    DD AC3 2.0 192Kbps
DISC INFO:
Disc Title:     Short Circuit 1986 1080p Blu-ray Ger VC-1 DTS-HD MA 5.1
Disc Size:      19 581 865 663 bytes
Protection:     AACS
BD-Java:        Yes
Extras:         50Hz Content
BDInfo:         0.5.8
PLAYLIST REPORT:
Name:                   00203.MPLS
Length:                 0:02:12.319 (h:m:s.ms)
Size:                   110 886 912 bytes
Total Bitrate:          6,70 Mbps
VIDEO:
Codec                   Bitrate             Description
-----                   -------             -----------
MPEG-2 Video            6123 kbps           576i / 25 fps / 4:3
AUDIO:
Codec                           Language        Bitrate         Description
-----                           --------        -------         -----------
Dolby Digital Audio             German          192 kbps        2.0 / 48 kHz / 192 kbps / Dolby Surround
FILES:
Name            Time In         Length          Size            Total Bitrate
----            -------         ------          ----            -------------
00009.M2TS      0:00:00.000     0:02:12.319     110 886 912     6 704
CHAPTERS:
Number          Time In         Length          Avg Video Rate  Max 1-Sec Rate  Max 1-Sec Time  Max 5-Sec Rate  Max 5-Sec Time  Max 10Sec Rate  Max 10Sec Time  Avg Frame Size  Max Frame Size  Max Frame Time
------          -------         ------          --------------  --------------  --------------  --------------  --------------  --------------  --------------  --------------  --------------  --------------
1               0:00:00.000     0:02:12.319     6 123 kbps      9 241 kbps      00:00:41.519    8 373 kbps      00:01:05.760    7 802 kbps      00:01:50.640    30 617 bytes    106 868 bytes   00:02:06.519
STREAM DIAGNOSTICS:
File            PID             Type            Codec           Language                Seconds                 Bitrate                 Bytes           Packets
----            ---             ----            -----           --------                --------------          --------------          -------------   -----
00009.M2TS      4113 (0x1011)   0x02            MPEG-2                                  132,240                 6 127                   101 282 480     552 385
00009.M2TS      4352 (0x1100)   0x81            AC3             deu (German)            132,240                 192                     3 178 752       20 695
QUICK SUMMARY:
Disc Title: Short Circuit 1986 1080p Blu-ray Ger VC-1 DTS-HD MA 5.1
Disc Size: 19 581 865 663 bytes
Protection: AACS
BD-Java: Yes
Playlist: 00203.MPLS
Size: 110 886 912 bytes
Length: 0:02:12.319
Total Bitrate: 6,70 Mbps
Video: MPEG-2 Video / 6123 kbps / 576i / 25 fps / 4:3
Audio: German / Dolby Digital Audio / 2.0 / 48 kHz / 192 kbps / Dolby Surround
********************
PLAYLIST: 00060.MPLS
********************
Total   Video
Title                                                           Codec   Length  Movie Size      Disc Size       Bitrate Bitrate Main Audio Track                          Secondary Audio Track
-----                                                           ------  ------- --------------  --------------  ------- ------- ------------------                        ---------------------
00060.MPLS                                                      VC-1    0:02:08 342 829 056     19 581 865 663  21,41   17,97   DTS-HD Master 5.1 2244Kbps (48kHz/16-bit)
DISC INFO:
Disc Title:     Short Circuit 1986 1080p Blu-ray Ger VC-1 DTS-HD MA 5.1
Disc Size:      19 581 865 663 bytes
Protection:     AACS
BD-Java:        Yes
Extras:         50Hz Content
BDInfo:         0.5.8
PLAYLIST REPORT:
Name:                   00060.MPLS
Length:                 0:02:08.128 (h:m:s.ms)
Size:                   342 829 056 bytes
Total Bitrate:          21,41 Mbps
VIDEO:
Codec                   Bitrate             Description
-----                   -------             -----------
VC-1 Video              17971 kbps          1080p / 23,976 fps / 16:9 / Advanced Profile 3
AUDIO:
Codec                           Language        Bitrate         Description
-----                           --------        -------         -----------
DTS-HD Master Audio             German          2244 kbps       5.1 / 48 kHz / 2244 kbps / 16-bit (DTS Core: 5.1 / 48 kHz / 1509 kbps / 16-bit)
FILES:
Name            Time In         Length          Size            Total Bitrate
----            -------         ------          ----            -------------
00008.M2TS      0:00:00.000     0:02:08.128     342 829 056     21 405
CHAPTERS:
Number          Time In         Length          Avg Video Rate  Max 1-Sec Rate  Max 1-Sec Time  Max 5-Sec Rate  Max 5-Sec Time  Max 10Sec Rate  Max 10Sec Time  Avg Frame Size  Max Frame Size  Max Frame Time
------          -------         ------          --------------  --------------  --------------  --------------  --------------  --------------  --------------  --------------  --------------  --------------
1               0:00:00.000     0:02:08.128     17 971 kbps     37 258 kbps     00:00:02.460    26 762 kbps     00:00:01.876    23 253 kbps     00:00:01.876    93 692 bytes    449 846 bytes   00:00:26.401
STREAM DIAGNOSTICS:
File            PID             Type            Codec           Language                Seconds                 Bitrate                 Bytes           Packets
----            ---             ----            -----           --------                --------------          --------------          -------------   -----
00008.M2TS      4113 (0x1011)   0xEA            VC-1                                    128,003                 17 988                  287 821 953     1 566 074
00008.M2TS      4352 (0x1100)   0x86            DTS-HD MA       deu (German)            128,003                 2 246                   35 937 100      215 154
QUICK SUMMARY:
Disc Title: Short Circuit 1986 1080p Blu-ray Ger VC-1 DTS-HD MA 5.1
Disc Size: 19 581 865 663 bytes
Protection: AACS
BD-Java: Yes
Playlist: 00060.MPLS
Size: 342 829 056 bytes
Length: 0:02:08.128
Total Bitrate: 21,41 Mbps
Video: VC-1 Video / 17971 kbps / 1080p / 23,976 fps / 16:9 / Advanced Profile 3
Audio: German / DTS-HD Master Audio / 5.1 / 48 kHz / 2244 kbps / 16-bit (DTS Core: 5.1 / 48 kHz / 1509 kbps / 16-bit)
********************
PLAYLIST: 00202.MPLS
********************
Total   Video
Title                                                           Codec   Length  Movie Size      Disc Size       Bitrate Bitrate Main Audio Track                          Secondary Audio Track
-----                                                           ------  ------- --------------  --------------  ------- ------- ------------------                        ---------------------
00202.MPLS                                                      VC-1    0:02:08 342 829 056     19 581 865 663  21,41   17,97   DTS-HD Master 5.1 2244Kbps (48kHz/16-bit)
DISC INFO:
Disc Title:     Short Circuit 1986 1080p Blu-ray Ger VC-1 DTS-HD MA 5.1
Disc Size:      19 581 865 663 bytes
Protection:     AACS
BD-Java:        Yes
Extras:         50Hz Content
BDInfo:         0.5.8
PLAYLIST REPORT:
Name:                   00202.MPLS
Length:                 0:02:08.128 (h:m:s.ms)
Size:                   342 829 056 bytes
Total Bitrate:          21,41 Mbps
VIDEO:
Codec                   Bitrate             Description
-----                   -------             -----------
VC-1 Video              17971 kbps          1080p / 23,976 fps / 16:9 / Advanced Profile 3
AUDIO:
Codec                           Language        Bitrate         Description
-----                           --------        -------         -----------
DTS-HD Master Audio             German          2244 kbps       5.1 / 48 kHz / 2244 kbps / 16-bit (DTS Core: 5.1 / 48 kHz / 1509 kbps / 16-bit)
FILES:
Name            Time In         Length          Size            Total Bitrate
----            -------         ------          ----            -------------
00008.M2TS      0:00:00.000     0:02:08.128     342 829 056     21 405
CHAPTERS:
Number          Time In         Length          Avg Video Rate  Max 1-Sec Rate  Max 1-Sec Time  Max 5-Sec Rate  Max 5-Sec Time  Max 10Sec Rate  Max 10Sec Time  Avg Frame Size  Max Frame Size  Max Frame Time
------          -------         ------          --------------  --------------  --------------  --------------  --------------  --------------  --------------  --------------  --------------  --------------
1               0:00:00.000     0:02:08.128     17 971 kbps     37 258 kbps     00:00:02.460    26 762 kbps     00:00:01.876    23 253 kbps     00:00:01.876    93 692 bytes    449 846 bytes   00:00:26.401
STREAM DIAGNOSTICS:
File            PID             Type            Codec           Language                Seconds                 Bitrate                 Bytes           Packets
----            ---             ----            -----           --------                --------------          --------------          -------------   -----
00008.M2TS      4113 (0x1011)   0xEA            VC-1                                    128,003                 17 988                  287 821 953     1 566 074
00008.M2TS      4352 (0x1100)   0x86            DTS-HD MA       deu (German)            128,003                 2 246                   35 937 100      215 154
QUICK SUMMARY:
Disc Title: Short Circuit 1986 1080p Blu-ray Ger VC-1 DTS-HD MA 5.1
Disc Size: 19 581 865 663 bytes
Protection: AACS
BD-Java: Yes
Playlist: 00202.MPLS
Size: 342 829 056 bytes
Length: 0:02:08.128
Total Bitrate: 21,41 Mbps
Video: VC-1 Video / 17971 kbps / 1080p / 23,976 fps / 16:9 / Advanced Profile 3
Audio: German / DTS-HD Master Audio / 5.1 / 48 kHz / 2244 kbps / 16-bit (DTS Core: 5.1 / 48 kHz / 1509 kbps / 16-bit)
********************
PLAYLIST: 00050.MPLS
********************
Total   Video
Title                                                           Codec   Length  Movie Size      Disc Size       Bitrate Bitrate Main Audio Track                          Secondary Audio Track
-----                                                           ------  ------- --------------  --------------  ------- ------- ------------------                        ---------------------
00050.MPLS                                                      VC-1    0:01:56 332 740 608     19 581 865 663  22,94   19,72   DTS-HD Hi-Res 5.1 2046Kbps (48kHz/24-bit)
DISC INFO:
Disc Title:     Short Circuit 1986 1080p Blu-ray Ger VC-1 DTS-HD MA 5.1
Disc Size:      19 581 865 663 bytes
Protection:     AACS
BD-Java:        Yes
Extras:         50Hz Content
BDInfo:         0.5.8
PLAYLIST REPORT:
Name:                   00050.MPLS
Length:                 0:01:56.039 (h:m:s.ms)
Size:                   332 740 608 bytes
Total Bitrate:          22,94 Mbps
VIDEO:
Codec                   Bitrate             Description
-----                   -------             -----------
VC-1 Video              19716 kbps          1080i / 25 fps / 16:9 / Advanced Profile 3
AUDIO:
Codec                           Language        Bitrate         Description
-----                           --------        -------         -----------
DTS-HD High-Res Audio           German          2046 kbps       5.1 / 48 kHz / 2046 kbps / 24-bit (DTS Core: 5.1 / 48 kHz / 1509 kbps / 24-bit)
FILES:
Name            Time In         Length          Size            Total Bitrate
----            -------         ------          ----            -------------
00007.M2TS      0:00:00.000     0:01:56.039     332 740 608     22 940
CHAPTERS:
Number          Time In         Length          Avg Video Rate  Max 1-Sec Rate  Max 1-Sec Time  Max 5-Sec Rate  Max 5-Sec Time  Max 10Sec Rate  Max 10Sec Time  Avg Frame Size  Max Frame Size  Max Frame Time
------          -------         ------          --------------  --------------  --------------  --------------  --------------  --------------  --------------  --------------  --------------  --------------
1               0:00:00.000     0:01:56.039     19 716 kbps     37 608 kbps     00:00:05.240    29 636 kbps     00:00:05.240    25 950 kbps     00:00:05.120    98 582 bytes    467 062 bytes   00:00:05.559
STREAM DIAGNOSTICS:
File            PID             Type            Codec           Language                Seconds                 Bitrate                 Bytes           Packets
----            ---             ----            -----           --------                --------------          --------------          -------------   -----
00007.M2TS      4113 (0x1011)   0xEA            VC-1                                    115,920                 19 737                  285 987 162     1 556 027
00007.M2TS      4352 (0x1100)   0x85            DTS-HD HR       deu (German)            115,920                 2 037                   29 514 232      173 104
QUICK SUMMARY:
Disc Title: Short Circuit 1986 1080p Blu-ray Ger VC-1 DTS-HD MA 5.1
Disc Size: 19 581 865 663 bytes
Protection: AACS
BD-Java: Yes
Playlist: 00050.MPLS
Size: 332 740 608 bytes
Length: 0:01:56.039
Total Bitrate: 22,94 Mbps
Video: VC-1 Video / 19716 kbps / 1080i / 25 fps / 16:9 / Advanced Profile 3
Audio: German / DTS-HD High-Res Audio / 5.1 / 48 kHz / 2046 kbps / 24-bit (DTS Core: 5.1 / 48 kHz / 1509 kbps / 24-bit)
********************
PLAYLIST: 00201.MPLS
********************
Total   Video
Title                                                           Codec   Length  Movie Size      Disc Size       Bitrate Bitrate Main Audio Track                          Secondary Audio Track
-----                                                           ------  ------- --------------  --------------  ------- ------- ------------------                        ---------------------
00201.MPLS                                                      VC-1    0:01:56 332 740 608     19 581 865 663  22,94   19,72   DTS-HD Hi-Res 5.1 2046Kbps (48kHz/24-bit)
DISC INFO:
Disc Title:     Short Circuit 1986 1080p Blu-ray Ger VC-1 DTS-HD MA 5.1
Disc Size:      19 581 865 663 bytes
Protection:     AACS
BD-Java:        Yes
Extras:         50Hz Content
BDInfo:         0.5.8
PLAYLIST REPORT:
Name:                   00201.MPLS
Length:                 0:01:56.039 (h:m:s.ms)
Size:                   332 740 608 bytes
Total Bitrate:          22,94 Mbps
VIDEO:
Codec                   Bitrate             Description
-----                   -------             -----------
VC-1 Video              19716 kbps          1080i / 25 fps / 16:9 / Advanced Profile 3
AUDIO:
Codec                           Language        Bitrate         Description
-----                           --------        -------         -----------
DTS-HD High-Res Audio           German          2046 kbps       5.1 / 48 kHz / 2046 kbps / 24-bit (DTS Core: 5.1 / 48 kHz / 1509 kbps / 24-bit)
FILES:
Name            Time In         Length          Size            Total Bitrate
----            -------         ------          ----            -------------
00007.M2TS      0:00:00.000     0:01:56.039     332 740 608     22 940
CHAPTERS:
Number          Time In         Length          Avg Video Rate  Max 1-Sec Rate  Max 1-Sec Time  Max 5-Sec Rate  Max 5-Sec Time  Max 10Sec Rate  Max 10Sec Time  Avg Frame Size  Max Frame Size  Max Frame Time
------          -------         ------          --------------  --------------  --------------  --------------  --------------  --------------  --------------  --------------  --------------  --------------
1               0:00:00.000     0:01:56.039     19 716 kbps     37 608 kbps     00:00:05.240    29 636 kbps     00:00:05.240    25 950 kbps     00:00:05.120    98 582 bytes    467 062 bytes   00:00:05.559
STREAM DIAGNOSTICS:
File            PID             Type            Codec           Language                Seconds                 Bitrate                 Bytes           Packets
----            ---             ----            -----           --------                --------------          --------------          -------------   -----
00007.M2TS      4113 (0x1011)   0xEA            VC-1                                    115,920                 19 737                  285 987 162     1 556 027
00007.M2TS      4352 (0x1100)   0x85            DTS-HD HR       deu (German)            115,920                 2 037                   29 514 232      173 104
QUICK SUMMARY:
Disc Title: Short Circuit 1986 1080p Blu-ray Ger VC-1 DTS-HD MA 5.1
Disc Size: 19 581 865 663 bytes
Protection: AACS
BD-Java: Yes
Playlist: 00201.MPLS
Size: 332 740 608 bytes
Length: 0:01:56.039
Total Bitrate: 22,94 Mbps
Video: VC-1 Video / 19716 kbps / 1080i / 25 fps / 16:9 / Advanced Profile 3
Audio: German / DTS-HD High-Res Audio / 5.1 / 48 kHz / 2046 kbps / 24-bit (DTS Core: 5.1 / 48 kHz / 1509 kbps / 24-bit)
********************
PLAYLIST: 00205.MPLS
********************
Total   Video
Title                                                           Codec   Length  Movie Size      Disc Size       Bitrate Bitrate Main Audio Track                          Secondary Audio Track
-----                                                           ------  ------- --------------  --------------  ------- ------- ------------------                        ---------------------
00205.MPLS                                                      MPEG-2  0:01:54 93 788 160      19 581 865 663  6,53    5,96    DD AC3 2.0 192Kbps
DISC INFO:
Disc Title:     Short Circuit 1986 1080p Blu-ray Ger VC-1 DTS-HD MA 5.1
Disc Size:      19 581 865 663 bytes
Protection:     AACS
BD-Java:        Yes
Extras:         50Hz Content
BDInfo:         0.5.8
PLAYLIST REPORT:
Name:                   00205.MPLS
Length:                 0:01:54.839 (h:m:s.ms)
Size:                   93 788 160 bytes
Total Bitrate:          6,53 Mbps
VIDEO:
Codec                   Bitrate             Description
-----                   -------             -----------
MPEG-2 Video            5960 kbps           576i / 25 fps / 16:9
AUDIO:
Codec                           Language        Bitrate         Description
-----                           --------        -------         -----------
Dolby Digital Audio             German          192 kbps        2.0 / 48 kHz / 192 kbps
FILES:
Name            Time In         Length          Size            Total Bitrate
----            -------         ------          ----            -------------
00011.M2TS      0:00:00.000     0:01:54.839     93 788 160      6 533
CHAPTERS:
Number          Time In         Length          Avg Video Rate  Max 1-Sec Rate  Max 1-Sec Time  Max 5-Sec Rate  Max 5-Sec Time  Max 10Sec Rate  Max 10Sec Time  Avg Frame Size  Max Frame Size  Max Frame Time
------          -------         ------          --------------  --------------  --------------  --------------  --------------  --------------  --------------  --------------  --------------  --------------
1               0:00:00.000     0:01:54.839     5 960 kbps      9 618 kbps      00:01:01.639    8 335 kbps      00:01:10.639    7 453 kbps      00:00:39.919    29 800 bytes    132 592 bytes   00:01:18.480
STREAM DIAGNOSTICS:
File            PID             Type            Codec           Language                Seconds                 Bitrate                 Bytes           Packets
----            ---             ----            -----           --------                --------------          --------------          -------------   -----
00011.M2TS      4113 (0x1011)   0x02            MPEG-2                                  114,720                 5 966                   85 554 424      466 666
00011.M2TS      4352 (0x1100)   0x81            AC3             deu (German)            114,720                 192                     2 756 352       17 945
QUICK SUMMARY:
Disc Title: Short Circuit 1986 1080p Blu-ray Ger VC-1 DTS-HD MA 5.1
Disc Size: 19 581 865 663 bytes
Protection: AACS
BD-Java: Yes
Playlist: 00205.MPLS
Size: 93 788 160 bytes
Length: 0:01:54.839
Total Bitrate: 6,53 Mbps
Video: MPEG-2 Video / 5960 kbps / 576i / 25 fps / 16:9
Audio: German / Dolby Digital Audio / 2.0 / 48 kHz / 192 kbps
********************
PLAYLIST: 00204.MPLS
********************
Total   Video
Title                                                           Codec   Length  Movie Size      Disc Size       Bitrate Bitrate Main Audio Track                          Secondary Audio Track
-----                                                           ------  ------- --------------  --------------  ------- ------- ------------------                        ---------------------
00204.MPLS                                                      MPEG-2  0:01:40 84 695 040      19 581 865 663  6,78    5,99    DD AC3 5.1 384Kbps
DISC INFO:
Disc Title:     Short Circuit 1986 1080p Blu-ray Ger VC-1 DTS-HD MA 5.1
Disc Size:      19 581 865 663 bytes
Protection:     AACS
BD-Java:        Yes
Extras:         50Hz Content
BDInfo:         0.5.8
PLAYLIST REPORT:
Name:                   00204.MPLS
Length:                 0:01:40.000 (h:m:s.ms)
Size:                   84 695 040 bytes
Total Bitrate:          6,78 Mbps
VIDEO:
Codec                   Bitrate             Description
-----                   -------             -----------
MPEG-2 Video            5985 kbps           576i / 25 fps / 4:3
AUDIO:
Codec                           Language        Bitrate         Description
-----                           --------        -------         -----------
Dolby Digital Audio             German          384 kbps        5.1 / 48 kHz / 384 kbps
SUBTITLES:
Codec                           Language        Bitrate         Description
-----                           --------        -------         -----------
Presentation Graphics           German          0,658 kbps
FILES:
Name            Time In         Length          Size            Total Bitrate
----            -------         ------          ----            -------------
00010.M2TS      0:00:00.000     0:01:40.000     84 695 040      6 776
CHAPTERS:
Number          Time In         Length          Avg Video Rate  Max 1-Sec Rate  Max 1-Sec Time  Max 5-Sec Rate  Max 5-Sec Time  Max 10Sec Rate  Max 10Sec Time  Avg Frame Size  Max Frame Size  Max Frame Time
------          -------         ------          --------------  --------------  --------------  --------------  --------------  --------------  --------------  --------------  --------------  --------------
1               0:00:00.000     0:01:40.000     5 985 kbps      9 293 kbps      00:00:15.319    7 886 kbps      00:00:15.319    7 556 kbps      00:00:08.799    29 926 bytes    95 340 bytes    00:00:05.879
STREAM DIAGNOSTICS:
File            PID             Type            Codec           Language                Seconds                 Bitrate                 Bytes           Packets
----            ---             ----            -----           --------                --------------          --------------          -------------   -----
00010.M2TS      4113 (0x1011)   0x02            MPEG-2                                  99,960                  5 988                   74 816 048      408 035
00010.M2TS      4352 (0x1100)   0x81            AC3             deu (German)            99,960                  403                     5 031 936       29 484
00010.M2TS      4608 (0x1200)   0x90            PGS             deu (German)            99,960                  1                       8 225           52
QUICK SUMMARY:
Disc Title: Short Circuit 1986 1080p Blu-ray Ger VC-1 DTS-HD MA 5.1
Disc Size: 19 581 865 663 bytes
Protection: AACS
BD-Java: Yes
Playlist: 00204.MPLS
Size: 84 695 040 bytes
Length: 0:01:40.000
Total Bitrate: 6,78 Mbps
Video: MPEG-2 Video / 5985 kbps / 576i / 25 fps / 4:3
Audio: German / Dolby Digital Audio / 5.1 / 48 kHz / 384 kbps
Subtitle: German / 0,658 kbps
********************
PLAYLIST: 00004.MPLS
********************
Total   Video
Title                                                           Codec   Length  Movie Size      Disc Size       Bitrate Bitrate Main Audio Track                          Secondary Audio Track
-----                                                           ------  ------- --------------  --------------  ------- ------- ------------------                        ---------------------
00004.MPLS                                                      VC-1    0:00:20 11 962 368      19 581 865 663  4,78    4,51
DISC INFO:
Disc Title:     Short Circuit 1986 1080p Blu-ray Ger VC-1 DTS-HD MA 5.1
Disc Size:      19 581 865 663 bytes
Protection:     AACS
BD-Java:        Yes
Extras:         50Hz Content
BDInfo:         0.5.8
PLAYLIST REPORT:
Name:                   00004.MPLS
Length:                 0:00:20.019 (h:m:s.ms)
Size:                   11 962 368 bytes
Total Bitrate:          4,78 Mbps
VIDEO:
Codec                   Bitrate             Description
-----                   -------             -----------
VC-1 Video              4508 kbps           1080p / 23,976 fps / 16:9 / Advanced Profile 3
FILES:
Name            Time In         Length          Size            Total Bitrate
----            -------         ------          ----            -------------
00004.M2TS      0:00:00.000     0:00:20.019     11 962 368      4 780
CHAPTERS:
Number          Time In         Length          Avg Video Rate  Max 1-Sec Rate  Max 1-Sec Time  Max 5-Sec Rate  Max 5-Sec Time  Max 10Sec Rate  Max 10Sec Time  Avg Frame Size  Max Frame Size  Max Frame Time
------          -------         ------          --------------  --------------  --------------  --------------  --------------  --------------  --------------  --------------  --------------  --------------
1               0:00:00.000     0:00:10.009     4 970 kbps      9 494 kbps      00:00:08.967    5 284 kbps      00:00:05.004    4 703 kbps      00:00:00.000    25 804 bytes    393 607 bytes   00:00:00.750
2               0:00:10.009     0:00:10.009     4 046 kbps      6 112 kbps      00:00:10.468    4 337 kbps      00:00:10.009    0 kbps          00:00:00.000    21 184 bytes    364 196 bytes   00:00:10.510
STREAM DIAGNOSTICS:
File            PID             Type            Codec           Language                Seconds                 Bitrate                 Bytes           Packets
----            ---             ----            -----           --------                --------------          --------------          -------------   -----
00004.M2TS      4113 (0x1011)   0xEA            VC-1                                    19,895                  4 537                   11 281 729      61 605
QUICK SUMMARY:
Disc Title: Short Circuit 1986 1080p Blu-ray Ger VC-1 DTS-HD MA 5.1
Disc Size: 19 581 865 663 bytes
Protection: AACS
BD-Java: Yes
Playlist: 00004.MPLS
Size: 11 962 368 bytes
Length: 0:00:20.019
Total Bitrate: 4,78 Mbps
Video: VC-1 Video / 4508 kbps / 1080p / 23,976 fps / 16:9 / Advanced Profile 3

Используемый софт

tsMuxer - разборка Blu-ray, BDRip
FFMpegSource - индексирование
Rhozet Carbon Coder - конвертация видео
AviSynth - обработка видео
Eac3To - извлечение WAV
BeHappy - даунмикс
Sonic Foundry Soft Encode - конвертация из формата WAV в AC3
Subtitle Edit, DVDSubEdit - редактирование субтитров
MuxMan - сборка видео
Adobe Photoshop, DVD Architect Pro - меню
DvdReMakePro - сборка диска

Скрипт

LoadPlugin("C:\Program Files\FFMpegSource2\ffms2.dll")
FFVideoSource("J:\Короткое замыкание 1\00003.track_4113.vc1")
LoadPlugin("C:\Program Files\AutoYUY2\AutoYUY2.dll")
AutoYUY2()
LoadPlugin("C:\Program Files\ColorMatrix\ColorMatrix.dll")
ColorMatrix(mode="Rec.709->Rec.601", inputFR=false, clamp=0)
Lanczos4Resize(720, 480)

Точка перехода

DVDInfo

Title: Зарубежное кино (DVD)
Size: 7.09 Gb ( 7 434 900 KBytes ) - DVD-9
Enabled regions: 1, 2, 3, 4, 5, 6, 7, 8
VTS_01 :
Play Length: 01:38:28
Video: NTSC 16:9 (720x480) VBR, Auto Letterboxed
Audio:
Russian (Dolby AC3, 2 ch)
Russian (Dolby AC3, 2 ch)
Russian (Dolby AC3, 2 ch)
Russian (Dolby AC3, 2 ch)
Russian (Dolby AC3, 2 ch)
English (Dolby AC3, 6 ch)
Subtitles:
Russian
Russian
English
Deutsch
Menu Video:
NTSC 4:3 (720x480) VBR
Menu English Language Unit :
Root Menu

Скриншоты меню

Скриншоты

Релиз проверен на софтовых плеерах. Есть проблемы в раздаче - пишите ЛС
[Profile]  [PM] 
Display posts:    
Reply to topic

Current time is: 14-Apr 00:02

All times are UTC + 2



You cannot post new topics in this forum
You cannot reply to topics in this forum
You cannot edit your posts in this forum
You cannot delete your posts in this forum
You cannot vote in polls in this forum
You cannot attach files in this forum
You cannot download files in this forum