Гостья из космоса / Чужой пришелец / Alien Intruder (Рикардо Жак Гэйл / Ricardo Jacques Gale) [1993, США, Фантастика, DVD5] AVO (А. Дольский) + Original (Eng) + Sub (Rus)

Reply to topic
 
Author
Message

Faust ®

Gender: Unknown

Longevity: 9 years 6 months

Posts: 14961

Reputation: 0 [+] [-]

Faust · Post 26-May-2014 00:37

[Quote] 

Гостья из космоса / Чужой пришелец / Alien Intruder- Страна: США
Студия: PM Entertainment Group
Жанр: Фантастика
Год выпуска: 1993
Продолжительность: 01:30:24-Перевод: Авторский (одноголосый закадровый) [Андрей Дольский]
Cубтитры: русские
Оригинальная аудиодорожка: английский-Режиссер: Рикардо Жак Гэйл / Ricardo Jacques Gale-В ролях: Максвелл Колфилд, Трэйси Скоггинс, Билли Ди Уильямс, Гари Робертс, Ричард Коуди, Стивен Дэвис, Джефф Конэвей, Майкл ДеЛано, Чарльз Янг-Описание: 2022 год. Околдованный красотой космической дивы, лейтенант Бормэн перестрелял весь экипаж звездолета. Четверо зэков, приговоренных на Земле к пожизненному заключению, посылаются для расследования этой трагедии-Доп. информация: Русская звуковая дорожка включается по умолчанию, дорожки и субтитры переключается с пульта плеера!
Бонусы: нет
Меню: есть, язык английский, статичное, не озвученное-Sample | IMDB | КиноПоиск-Тип релиза: DVD5 (Custom)
Контейнер: DVD-Video-Видео: PAL 4:3 (720x576) VBR
Аудио 1: AC3, 2/0 ch, 192Kbps, Delay 0 mSec [Russian_AVO]
Аудио 2: AC3, 2/0 ch, 192Kbps, Delay 0 mSec [Original_Eng]-Релиз группы: -

Используемое ПО

1. PgcDemux - разборка оригинального DVD;
2. MuxMan - сборка DVD;
3. DVDReMake Pro - финальный проект.

DVDInfo

Title:
Size: 3.79 Gb ( 3 974 236 KBytes ) - DVD-5
Enabled regions: 1, 2, 3, 4, 5, 6, 7, 8
VTS_01 :
Play Length:
Video: PAL 4:3 (720x576) VBR
Audio:
Not specified (MPEG1, 2 ch)
VTS_02 :
Play Length: 01:30:24
Video: PAL 4:3 (720x576) VBR
Audio:
Russian (Dolby AC3, 2 ch)
English (Dolby AC3, 2 ch)
Subtitles:
Russian
Menu Video:
PAL 4:3 (720x576) VBR
Menu Subtitles:
Not specified
Menu English Language Unit :
Root Menu
Angle menu

MediaInfo

General
Complete name : D:\Мои релизы\Alien Intruder [DVD5]\VIDEO_TS\VIDEO_TS.BUP
Format : DVD Video
Format profile : Menu
File size : 12.0 KiB
Video
ID : 224 (0xE0)
Format : MPEG Video
Format version : Version 2
Bit rate mode : Variable
Width : 720 pixels
Height : 576 pixels
Display aspect ratio : 4:3
Frame rate : 25.000 fps
Standard : PAL
Compression mode : Lossy
Text
Format : RLE
Format/Info : Run-length encoding
Bit depth : 2 bits
General
Complete name : D:\Мои релизы\Alien Intruder [DVD5]\VIDEO_TS\VIDEO_TS.IFO
Format : DVD Video
Format profile : Menu
File size : 12.0 KiB
Video
ID : 224 (0xE0)
Format : MPEG Video
Format version : Version 2
Bit rate mode : Variable
Width : 720 pixels
Height : 576 pixels
Display aspect ratio : 4:3
Frame rate : 25.000 fps
Standard : PAL
Compression mode : Lossy
Text
Format : RLE
Format/Info : Run-length encoding
Bit depth : 2 bits
General
Complete name : D:\Мои релизы\Alien Intruder [DVD5]\VIDEO_TS\VIDEO_TS.VOB
Format : MPEG-PS
File size : 132 KiB
Duration : 40ms
Overall bit rate : 27.0 Mbps
Video
ID : 224 (0xE0)
Format : MPEG Video
Format version : Version 2
Format profile : Main@Main
Format settings, BVOP : No
Format settings, Matrix : Default
Duration : 40ms
Bit rate mode : Constant
Bit rate : 9 000 Kbps
Width : 720 pixels
Height : 576 pixels
Display aspect ratio : 4:3
Frame rate : 25.000 fps
Standard : PAL
Color space : YUV
Chroma subsampling : 4:2:0
Bit depth : 8 bits
Scan type : Progressive
Scan order : Top Field First
Compression mode : Lossy
Bits/(Pixel*Frame) : 0.868
Stream size : 43.9 KiB (33%)
Text
ID : 32 (0x20)
Format : RLE
Format/Info : Run-length encoding
Menu
General
Complete name : D:\Мои релизы\Alien Intruder [DVD5]\VIDEO_TS\VTS_01_0.BUP
Format : DVD Video
Format profile : Program
File size : 12.0 KiB
Duration : 480ms
Overall bit rate : 205 Kbps
Video
ID : 224 (0xE0)
Format : MPEG Video
Format version : Version 2
Duration : 480ms
Bit rate mode : Variable
Width : 720 pixels
Height : 576 pixels
Display aspect ratio : 4:3
Frame rate : 25.000 fps
Standard : PAL
Compression mode : Lossy
Audio
ID : 0 (0x0)
Format : MPEG Audio
Format profile : Version 1
Duration : 480ms
Channel(s) : 2 channels
Sampling rate : 48.0 KHz
Compression mode : Lossy
Menu #1
Duration : 480ms
00:00:00.000 : Chapter 1
List (Audio) : 0
Menu #2
Duration : 480ms
00:00:00.000 : Chapter 1
List (Audio) : 0
Menu #3
General
Complete name : D:\Мои релизы\Alien Intruder [DVD5]\VIDEO_TS\VTS_01_0.IFO
Format : DVD Video
Format profile : Program
File size : 12.0 KiB
Duration : 480ms
Overall bit rate : 205 Kbps
Video
ID : 224 (0xE0)
Format : MPEG Video
Format version : Version 2
Duration : 480ms
Bit rate mode : Variable
Width : 720 pixels
Height : 576 pixels
Display aspect ratio : 4:3
Frame rate : 25.000 fps
Standard : PAL
Compression mode : Lossy
Audio
ID : 0 (0x0)
Format : MPEG Audio
Format profile : Version 1
Duration : 480ms
Channel(s) : 2 channels
Sampling rate : 48.0 KHz
Compression mode : Lossy
Menu #1
Duration : 480ms
00:00:00.000 : Chapter 1
List (Audio) : 0
Menu #2
Duration : 480ms
00:00:00.000 : Chapter 1
List (Audio) : 0
Menu #3
General
Complete name : D:\Мои релизы\Alien Intruder [DVD5]\VIDEO_TS\VTS_01_1.VOB
Format : MPEG-PS
File size : 20.0 KiB
Duration : 40ms
Overall bit rate : 4 096 Kbps
Video
ID : 224 (0xE0)
Format : MPEG Video
Format version : Version 2
Format profile : Main@Main
Format settings, BVOP : No
Format settings, Matrix : Default
Format settings, GOP : N=1
Duration : 40ms
Bit rate mode : Constant
Bit rate : 8 000 Kbps
Width : 720 pixels
Height : 576 pixels
Display aspect ratio : 16:9
Frame rate : 25.000 fps
Standard : PAL
Color space : YUV
Chroma subsampling : 4:2:0
Bit depth : 8 bits
Scan type : Progressive
Scan order : Top Field First
Compression mode : Lossy
Bits/(Pixel*Frame) : 0.772
Stream size : 39.1 KiB
Menu
General
Complete name : D:\Мои релизы\Alien Intruder [DVD5]\VIDEO_TS\VTS_02_0.BUP
Format : DVD Video
Format profile : Program
File size : 60.0 KiB
Duration : 1h 30mn
Overall bit rate : 90 bps
Video
ID : 224 (0xE0)
Format : MPEG Video
Format version : Version 2
Duration : 1h 30mn
Bit rate mode : Variable
Width : 720 pixels
Height : 576 pixels
Display aspect ratio : 4:3
Frame rate : 25.000 fps
Standard : PAL
Compression mode : Lossy
Audio #1
ID : 128 (0x80)
Format : AC-3
Format/Info : Audio Coding 3
Duration : 1h 30mn
Channel(s) : 2 channels
Sampling rate : 48.0 KHz
Compression mode : Lossy
Language : Russian
Audio #2
ID : 129 (0x81)
Format : AC-3
Format/Info : Audio Coding 3
Duration : 1h 30mn
Channel(s) : 2 channels
Sampling rate : 48.0 KHz
Compression mode : Lossy
Language : English
Text
ID : 32 (0x20)
Format : RLE
Format/Info : Run-length encoding
Bit depth : 2 bits
Language : Russian
Menu #1
Duration : 1h 30mn
00:00:00.000 : Chapter 1
00:08:20.240 : Chapter 2
00:19:08.160 : Chapter 3
00:44:54.640 : Chapter 4
01:01:06.520 : Chapter 5
01:12:31.360 : Chapter 6
List (Audio) : 0 / 1
List (Subtitles 4/3) : 0
List (Subtitles Wide) : 0
List (Subtitles Letterbox) : 0
List (Subtitles Pan&Scan) : 0
Menu #2
Duration : 400ms
00:00:00.000 : Chapter 1
List (Audio) : 0
List (Subtitles 4/3) : 0
List (Subtitles Wide) : 0
List (Subtitles Letterbox) : 0
List (Subtitles Pan&Scan) : 0
Menu #3
General
Complete name : D:\Мои релизы\Alien Intruder [DVD5]\VIDEO_TS\VTS_02_0.IFO
Format : DVD Video
Format profile : Program
File size : 60.0 KiB
Duration : 1h 30mn
Overall bit rate : 90 bps
Video
ID : 224 (0xE0)
Format : MPEG Video
Format version : Version 2
Duration : 1h 30mn
Bit rate mode : Variable
Width : 720 pixels
Height : 576 pixels
Display aspect ratio : 4:3
Frame rate : 25.000 fps
Standard : PAL
Compression mode : Lossy
Audio #1
ID : 128 (0x80)
Format : AC-3
Format/Info : Audio Coding 3
Duration : 1h 30mn
Channel(s) : 2 channels
Sampling rate : 48.0 KHz
Compression mode : Lossy
Language : Russian
Audio #2
ID : 129 (0x81)
Format : AC-3
Format/Info : Audio Coding 3
Duration : 1h 30mn
Channel(s) : 2 channels
Sampling rate : 48.0 KHz
Compression mode : Lossy
Language : English
Text
ID : 32 (0x20)
Format : RLE
Format/Info : Run-length encoding
Bit depth : 2 bits
Language : Russian
Menu #1
Duration : 1h 30mn
00:00:00.000 : Chapter 1
00:08:20.240 : Chapter 2
00:19:08.160 : Chapter 3
00:44:54.640 : Chapter 4
01:01:06.520 : Chapter 5
01:12:31.360 : Chapter 6
List (Audio) : 0 / 1
List (Subtitles 4/3) : 0
List (Subtitles Wide) : 0
List (Subtitles Letterbox) : 0
List (Subtitles Pan&Scan) : 0
Menu #2
Duration : 400ms
00:00:00.000 : Chapter 1
List (Audio) : 0
List (Subtitles 4/3) : 0
List (Subtitles Wide) : 0
List (Subtitles Letterbox) : 0
List (Subtitles Pan&Scan) : 0
Menu #3
General
Complete name : D:\Мои релизы\Alien Intruder [DVD5]\VIDEO_TS\VTS_02_1.VOB
Format : MPEG-PS
File size : 1 024 MiB
Duration : 24mn 45s
Overall bit rate : 5 783 Kbps
Video
ID : 224 (0xE0)
Format : MPEG Video
Format version : Version 2
Format profile : Main@Main
Format settings, BVOP : Yes
Format settings, Matrix : Default
Format settings, GOP : M=3, N=13
Duration : 24mn 45s
Bit rate mode : Variable
Bit rate : 5 284 Kbps
Nominal bit rate : 8 500 Kbps
Width : 720 pixels
Height : 576 pixels
Display aspect ratio : 4:3
Frame rate : 25.000 fps
Standard : PAL
Color space : YUV
Chroma subsampling : 4:2:0
Bit depth : 8 bits
Scan type : Interlaced
Scan order : Top Field First
Compression mode : Lossy
Bits/(Pixel*Frame) : 0.510
Stream size : 936 MiB (91%)
Audio #1
ID : 128 (0x80)
Format : AC-3
Format/Info : Audio Coding 3
Mode extension : CM (complete main)
Duration : 24mn 45s
Bit rate mode : Constant
Bit rate : 192 Kbps
Channel(s) : 2 channels
Channel positions : Front: L R
Sampling rate : 48.0 KHz
Bit depth : 16 bits
Compression mode : Lossy
Stream size : 34.0 MiB (3%)
Audio #2
ID : 129 (0x81)
Format : AC-3
Format/Info : Audio Coding 3
Mode extension : CM (complete main)
Duration : 24mn 45s
Bit rate mode : Constant
Bit rate : 192 Kbps
Channel(s) : 2 channels
Channel positions : Front: L R
Sampling rate : 48.0 KHz
Bit depth : 16 bits
Compression mode : Lossy
Stream size : 34.0 MiB (3%)
Menu
General
Complete name : D:\Мои релизы\Alien Intruder [DVD5]\VIDEO_TS\VTS_02_2.VOB
Format : MPEG-PS
File size : 1 024 MiB
Duration : 22mn 9s
Overall bit rate : 6 459 Kbps
Video
ID : 224 (0xE0)
Format : MPEG Video
Format version : Version 2
Format profile : Main@Main
Format settings, BVOP : Yes
Format settings, Matrix : Default
Format settings, GOP : M=3, N=13
Duration : 22mn 9s
Bit rate mode : Variable
Bit rate : 5 947 Kbps
Nominal bit rate : 8 500 Kbps
Width : 720 pixels
Height : 576 pixels
Display aspect ratio : 4:3
Frame rate : 25.000 fps
Standard : PAL
Color space : YUV
Chroma subsampling : 4:2:0
Bit depth : 8 bits
Scan type : Interlaced
Scan order : Top Field First
Compression mode : Lossy
Bits/(Pixel*Frame) : 0.574
Stream size : 943 MiB (92%)
Audio #1
ID : 128 (0x80)
Format : AC-3
Format/Info : Audio Coding 3
Mode extension : CM (complete main)
Duration : 22mn 9s
Bit rate mode : Constant
Bit rate : 192 Kbps
Channel(s) : 2 channels
Channel positions : Front: L R
Sampling rate : 48.0 KHz
Bit depth : 16 bits
Compression mode : Lossy
Video delay : -520ms
Stream size : 30.4 MiB (3%)
Audio #2
ID : 129 (0x81)
Format : AC-3
Format/Info : Audio Coding 3
Mode extension : CM (complete main)
Duration : 22mn 9s
Bit rate mode : Constant
Bit rate : 192 Kbps
Channel(s) : 2 channels
Channel positions : Front: L R
Sampling rate : 48.0 KHz
Bit depth : 16 bits
Compression mode : Lossy
Video delay : -520ms
Stream size : 30.4 MiB (3%)
Menu
General
Complete name : D:\Мои релизы\Alien Intruder [DVD5]\VIDEO_TS\VTS_02_3.VOB
Format : MPEG-PS
File size : 1 024 MiB
Duration : 23mn 45s
Overall bit rate : 6 026 Kbps
Video
ID : 224 (0xE0)
Format : MPEG Video
Format version : Version 2
Format profile : Main@Main
Format settings, BVOP : Yes
Format settings, Matrix : Default
Format settings, GOP : M=3, N=13
Duration : 23mn 45s
Bit rate mode : Variable
Bit rate : 5 522 Kbps
Nominal bit rate : 8 500 Kbps
Width : 720 pixels
Height : 576 pixels
Display aspect ratio : 4:3
Frame rate : 25.000 fps
Standard : PAL
Color space : YUV
Chroma subsampling : 4:2:0
Bit depth : 8 bits
Scan type : Interlaced
Scan order : Top Field First
Compression mode : Lossy
Bits/(Pixel*Frame) : 0.533
Stream size : 938 MiB (92%)
Audio #1
ID : 128 (0x80)
Format : AC-3
Format/Info : Audio Coding 3
Mode extension : CM (complete main)
Duration : 23mn 45s
Bit rate mode : Constant
Bit rate : 192 Kbps
Channel(s) : 2 channels
Channel positions : Front: L R
Sampling rate : 48.0 KHz
Bit depth : 16 bits
Compression mode : Lossy
Video delay : -336ms
Stream size : 32.6 MiB (3%)
Audio #2
ID : 129 (0x81)
Format : AC-3
Format/Info : Audio Coding 3
Mode extension : CM (complete main)
Duration : 23mn 45s
Bit rate mode : Constant
Bit rate : 192 Kbps
Channel(s) : 2 channels
Channel positions : Front: L R
Sampling rate : 48.0 KHz
Bit depth : 16 bits
Compression mode : Lossy
Video delay : -336ms
Stream size : 32.6 MiB (3%)
Text
ID : 32 (0x20)
Format : RLE
Format/Info : Run-length encoding
Menu
General
Complete name : D:\Мои релизы\Alien Intruder [DVD5]\VIDEO_TS\VTS_02_4.VOB
Format : MPEG-PS
File size : 809 MiB
Overall bit rate : 0
Video
ID : 224 (0xE0)
Format : MPEG Video
Format version : Version 2
Format profile : Main@Main
Format settings, BVOP : Yes
Format settings, Matrix : Default
Format settings, GOP : M=3, N=13
Bit rate mode : Variable
Nominal bit rate : 8 500 Kbps
Width : 720 pixels
Height : 576 pixels
Display aspect ratio : 4:3
Frame rate : 25.000 fps
Standard : PAL
Color space : YUV
Chroma subsampling : 4:2:0
Bit depth : 8 bits
Scan type : Interlaced
Scan order : Top Field First
Compression mode : Lossy
Bits/(Pixel*Frame) : 0.820
Audio #1
ID : 128 (0x80)
Format : AC-3
Format/Info : Audio Coding 3
Mode extension : CM (complete main)
Duration : 19mn 43s
Bit rate mode : Constant
Bit rate : 192 Kbps
Channel(s) : 2 channels
Channel positions : Front: L R
Sampling rate : 48.0 KHz
Bit depth : 16 bits
Compression mode : Lossy
Video delay : -608ms
Stream size : 27.1 MiB (3%)
Audio #2
ID : 129 (0x81)
Format : AC-3
Format/Info : Audio Coding 3
Mode extension : CM (complete main)
Duration : 19mn 43s
Bit rate mode : Constant
Bit rate : 192 Kbps
Channel(s) : 2 channels
Channel positions : Front: L R
Sampling rate : 48.0 KHz
Bit depth : 16 bits
Compression mode : Lossy
Video delay : -608ms
Stream size : 27.1 MiB (3%)
Text
ID : 32 (0x20)
Format : RLE
Format/Info : Run-length encoding
Video delay : 3s 40ms
Menu

Скриншоты меню

Скриншоты

[Profile]  [PM] 
Display posts:    
Reply to topic

Current time is: 14-Apr 21:56

All times are UTC + 2



You cannot post new topics in this forum
You cannot reply to topics in this forum
You cannot edit your posts in this forum
You cannot delete your posts in this forum
You cannot vote in polls in this forum
You cannot attach files in this forum
You cannot download files in this forum