Ступай с миром, Джамиль / Gå med fred Jamil / Ma salama Jamil (Омар Шаргави / Omar Shargawi) [2008, Дания, Криминальная драма, DVD9(custom)] VO + Original (Ar) + Sub (Rus, Da, Eng)

Reply to topic
 
Author
Message

Faust ®

Gender: Unknown

Longevity: 9 years 6 months

Posts: 14946

Reputation: 0 [+] [-]

Faust · Post 08-Jun-2014 00:20

[Quote] 

Ступай с миром, Джамиль / Gå med fred Jamil / Ma salama Jamil- Страна: Дания
Студия: Film i Väst, New Danish Screen, Nordisk Film- & TV-Fond
Жанр: Криминальная драма
Год выпуска: 2008
Продолжительность: 01:25:59-Перевод: Одноголосый закадровый [отсюда спасибо viktor_2838]
Cубтитры: русские [отсюда спасибо sonnyb], датские, английские
Оригинальная аудиодорожка: арабский-Режиссер: Омар Шаргави / Omar Shargawi-В ролях: Дар Салим, Омар Шаргави, Амира Хелен Ларсен, Хассан Эль Саед-Описание: Арабская история, происходящая в Скандинавии. О древней религиозной ненависти, о любви и наказании, вине и искуплении. Об ответственности за свои решения и об отказе от насилия. Джамиль на раздолье. Он борется на войне. На войне с самим собой.-Доп. информация:
- за исходный DVD9 спасибо edus67

- Арабская звуковая дорожка 2.0 заменена на русскую (выбирается в Меню), русские субтитры включаются с пульта плеера!
- удалены дополнительные материалы с датскими субтитрами (оставлены аналогичные с английскими)
Бонусы: дополнительные материалы включают трейлер, видеоклип, удаленные сцены - все на арабском языке
Меню: есть, язык датский, анимированное, озвученное-Sample | IMDB | КиноПоиск-Тип релиза: DVD9 (Custom)
Контейнер: DVD-Video-Видео: PAL 16:9 (720x576) VBR Auto Letterboxed
Аудио 1: AC3, 3/2+LFE ch, 448Kbps, Delay 0 mSec [Original_Arabic]
Аудио 2: AC3, 2/0 ch, 192Kbps, Delay 0 mSec [Russian_VO]-Релиз группы: -

Используемое ПО

1. BeLight - mp3 - wav;
2. Minnetonka Audio Software - wav - ac3;

3. PgcDemux - разборка оригинального DVD;
4. MuxMan - сборка DVD;
5. DVDReMake Pro - финальный проект.

DVDInfo

Title:
Size: 6.05 Gb ( 6 340 822 KBytes ) - DVD-9
Enabled regions: 1, 2, 3, 4, 5, 6, 7, 8
VTS_01 :
Play Length: 01:25:59
Video: PAL 16:9 (720x576) VBR, Auto Letterboxed
Audio:
Arabic (Dolby AC3, 6 ch)
Russian (Dolby AC3, 2 ch)
Subtitles:
Dansk
English
Russian
VTS_02 :
Play Length:
Video: PAL 16:9 (720x576) VBR, Auto Letterboxed
Audio:
Not specified (Dolby AC3, 2 ch)
VTS_03 :
Play Length:
Video: PAL 16:9 (720x576) VBR, Auto Letterboxed
Audio:
Arabic (Dolby AC3, 2 ch)
Subtitles:
Dansk
Not specified
VTS_04 :
Play Length:
Video: PAL 16:9 (720x576) VBR, Auto Letterboxed
Audio:
Arabic (Dolby AC3, 2 ch)
VTS_05 :
Play Length:
Video: PAL 16:9 (720x576) VBR, Auto Letterboxed
Audio:
Arabic (Dolby AC3, 2 ch)
VTS_06 :
Play Length:
Video: PAL 16:9 (720x576) VBR, Auto Letterboxed
Audio:
Arabic (Dolby AC3, 2 ch)
VTS_07 :
Play Length:
Video: PAL 16:9 (720x576) VBR, Auto Letterboxed
Audio:
Arabic (Dolby AC3, 2 ch)
VTS_08 :
Play Length:
Video: PAL 16:9 (720x576) VBR, Auto Letterboxed
Audio:
Arabic (Dolby AC3, 2 ch)
VTS_09 :
Play Length: 00:01:59
Video: PAL 16:9 (720x576) VBR, Auto Letterboxed
Audio:
Arabic (Dolby AC3, 2 ch)
Subtitles:
Not specified
English
VTS_10 :
Play Length: 00:01:10
Video: PAL 16:9 (720x576) VBR, Auto Letterboxed
Audio:
Arabic (Dolby AC3, 2 ch)
VTS_11 :
Play Length: 00:04:18
Video: PAL 16:9 (720x576) VBR, Auto Letterboxed
Audio:
Arabic (Dolby AC3, 2 ch)
VTS_12 :
Play Length: 00:02:00
Video: PAL 16:9 (720x576) VBR, Auto Letterboxed
Audio:
Arabic (Dolby AC3, 2 ch)
VTS_13 :
Play Length: 00:03:24
Video: PAL 16:9 (720x576) VBR, Auto Letterboxed
Audio:
Arabic (Dolby AC3, 2 ch)
VTS_14 :
Play Length: 00:02:48
Video: PAL 16:9 (720x576) VBR, Auto Letterboxed
Audio:
Arabic (Dolby AC3, 2 ch)
Menu Video:
NTSC 4:3 (720x480) VBR
Auto Pan&Scan, Auto Letterboxed
Menu English Language Unit :
Root Menu

MediaInfo

General
Complete name : D:\Мои релизы\Ma salama Jamil [DVD9]\VIDEO_TS\VIDEO_TS.BUP
Format : DVD Video
Format profile : Menu
File size : 20.0 KiB
Video
ID : 224 (0xE0)
Format : MPEG Video
Format version : Version 1
Bit rate mode : Variable
Width : 720 pixels
Height : 480 pixels
Display aspect ratio : 4:3
Frame rate : 29.970 fps
Standard : NTSC
Compression mode : Lossy
General
Complete name : D:\Мои релизы\Ma salama Jamil [DVD9]\VIDEO_TS\VIDEO_TS.IFO
Format : DVD Video
Format profile : Menu
File size : 20.0 KiB
Video
ID : 224 (0xE0)
Format : MPEG Video
Format version : Version 1
Bit rate mode : Variable
Width : 720 pixels
Height : 480 pixels
Display aspect ratio : 4:3
Frame rate : 29.970 fps
Standard : NTSC
Compression mode : Lossy
General
Complete name : D:\Мои релизы\Ma salama Jamil [DVD9]\VIDEO_TS\VTS_01_0.BUP
Format : DVD Video
Format profile : Program
File size : 82.0 KiB
Duration : 1h 25mn
Overall bit rate : 130 bps
Video
ID : 224 (0xE0)
Format : MPEG Video
Format version : Version 2
Duration : 1h 25mn
Bit rate mode : Variable
Width : 720 pixels
Height : 576 pixels
Display aspect ratio : 16:9
Frame rate : 25.000 fps
Standard : PAL
Compression mode : Lossy
Audio #1
ID : 128 (0x80)
Format : AC-3
Format/Info : Audio Coding 3
Duration : 1h 25mn
Channel(s) : 6 channels
Sampling rate : 48.0 KHz
Compression mode : Lossy
Language : Arabic
Audio #2
ID : 129 (0x81)
Format : AC-3
Format/Info : Audio Coding 3
Duration : 1h 25mn
Channel(s) : 2 channels
Sampling rate : 48.0 KHz
Compression mode : Lossy
Language : Russian
Text #1
ID : 32 (0x20)
Format : RLE
Format/Info : Run-length encoding
Bit depth : 2 bits
Language : Danish
Text #2
ID : 33 (0x21)
Format : RLE
Format/Info : Run-length encoding
Bit depth : 2 bits
Language : English
Text #3
ID : 34 (0x22)
Format : RLE
Format/Info : Run-length encoding
Bit depth : 2 bits
Language : Russian
Menu
Duration : 1h 25mn
00:00:00.000 : Chapter 1
00:06:36.240 : Chapter 2
00:16:05.120 : Chapter 3
00:24:46.160 : Chapter 4
00:33:17.320 : Chapter 5
00:39:47.840 : Chapter 6
00:50:53.960 : Chapter 7
00:56:20.520 : Chapter 8
01:05:01.560 : Chapter 9
01:12:11.600 : Chapter 10
01:18:16.120 : Chapter 11
01:22:53.280 : Chapter 12
01:25:59.040 : Chapter 13
List (Audio) : 0 / 1
List (Subtitles 4/3) : 0 / 0 / 0
List (Subtitles Wide) : 0 / 1 / 2
List (Subtitles Letterbox) : 0 / 1 / 2
List (Subtitles Pan&Scan) : 0 / 0 / 0
General
Complete name : D:\Мои релизы\Ma salama Jamil [DVD9]\VIDEO_TS\VTS_01_0.IFO
Format : DVD Video
Format profile : Program
File size : 82.0 KiB
Duration : 1h 25mn
Overall bit rate : 130 bps
Video
ID : 224 (0xE0)
Format : MPEG Video
Format version : Version 2
Duration : 1h 25mn
Bit rate mode : Variable
Width : 720 pixels
Height : 576 pixels
Display aspect ratio : 16:9
Frame rate : 25.000 fps
Standard : PAL
Compression mode : Lossy
Audio #1
ID : 128 (0x80)
Format : AC-3
Format/Info : Audio Coding 3
Duration : 1h 25mn
Channel(s) : 6 channels
Sampling rate : 48.0 KHz
Compression mode : Lossy
Language : Arabic
Audio #2
ID : 129 (0x81)
Format : AC-3
Format/Info : Audio Coding 3
Duration : 1h 25mn
Channel(s) : 2 channels
Sampling rate : 48.0 KHz
Compression mode : Lossy
Language : Russian
Text #1
ID : 32 (0x20)
Format : RLE
Format/Info : Run-length encoding
Bit depth : 2 bits
Language : Danish
Text #2
ID : 33 (0x21)
Format : RLE
Format/Info : Run-length encoding
Bit depth : 2 bits
Language : English
Text #3
ID : 34 (0x22)
Format : RLE
Format/Info : Run-length encoding
Bit depth : 2 bits
Language : Russian
Menu
Duration : 1h 25mn
00:00:00.000 : Chapter 1
00:06:36.240 : Chapter 2
00:16:05.120 : Chapter 3
00:24:46.160 : Chapter 4
00:33:17.320 : Chapter 5
00:39:47.840 : Chapter 6
00:50:53.960 : Chapter 7
00:56:20.520 : Chapter 8
01:05:01.560 : Chapter 9
01:12:11.600 : Chapter 10
01:18:16.120 : Chapter 11
01:22:53.280 : Chapter 12
01:25:59.040 : Chapter 13
List (Audio) : 0 / 1
List (Subtitles 4/3) : 0 / 0 / 0
List (Subtitles Wide) : 0 / 1 / 2
List (Subtitles Letterbox) : 0 / 1 / 2
List (Subtitles Pan&Scan) : 0 / 0 / 0
General
Complete name : D:\Мои релизы\Ma salama Jamil [DVD9]\VIDEO_TS\VTS_01_0.VOB
Format : MPEG-PS
File size : 85.8 MiB
Duration : 45s 600ms
Overall bit rate : 15.8 Mbps
Video
ID : 224 (0xE0)
Format : MPEG Video
Format version : Version 2
Format profile : Main@Main
Format settings, BVOP : Yes
Format settings, Matrix : Default
Format settings, GOP : M=3, N=12
Duration : 7ms
Bit rate mode : Variable
Bit rate : 15.3 Mbps
Nominal bit rate : 8 000 Kbps
Width : 720 pixels
Height : 576 pixels
Display aspect ratio : 16:9
Frame rate : 25.000 fps
Standard : PAL
Color space : YUV
Chroma subsampling : 4:2:0
Bit depth : 8 bits
Scan type : Interlaced
Scan order : Top Field First
Compression mode : Lossy
Bits/(Pixel*Frame) : 1.473
Stream size : 13.1 KiB (0%)
Audio
ID : 128 (0x80)
Format : AC-3
Format/Info : Audio Coding 3
Mode extension : CM (complete main)
Duration : 45s 600ms
Bit rate mode : Constant
Bit rate : 192 Kbps
Channel(s) : 2 channels
Channel positions : Front: L R
Sampling rate : 48.0 KHz
Bit depth : 16 bits
Compression mode : Lossy
Stream size : 1.04 MiB (1%)
Text #1
ID : 32 (0x20)
Format : RLE
Format/Info : Run-length encoding
Text #2
ID : 33 (0x21)
Format : RLE
Format/Info : Run-length encoding
Menu
General
Complete name : D:\Мои релизы\Ma salama Jamil [DVD9]\VIDEO_TS\VTS_01_1.VOB
Format : MPEG-PS
File size : 1 024 MiB
Duration : 16mn 16s
Overall bit rate : 8 799 Kbps
Video
ID : 224 (0xE0)
Format : MPEG Video
Format version : Version 2
Format profile : Main@Main
Format settings, BVOP : Yes
Format settings, Matrix : Default
Format settings, GOP : M=3, N=13
Duration : 16mn 16s
Bit rate mode : Variable
Bit rate : 8 000 Kbps
Width : 720 pixels
Height : 576 pixels
Display aspect ratio : 2.35:1
Frame rate : 25.000 fps
Standard : PAL
Color space : YUV
Chroma subsampling : 4:2:0
Bit depth : 8 bits
Scan type : Interlaced
Scan order : Top Field First
Compression mode : Lossy
Bits/(Pixel*Frame) : 0.772
Stream size : 929 MiB (91%)
Audio #1
ID : 128 (0x80)
Format : AC-3
Format/Info : Audio Coding 3
Mode extension : CM (complete main)
Duration : 16mn 15s
Bit rate mode : Constant
Bit rate : 448 Kbps
Channel(s) : 6 channels
Channel positions : Front: L C R, Side: L R, LFE
Sampling rate : 48.0 KHz
Bit depth : 16 bits
Compression mode : Lossy
Stream size : 52.1 MiB (5%)
Audio #2
ID : 129 (0x81)
Format : AC-3
Format/Info : Audio Coding 3
Mode extension : CM (complete main)
Duration : 16mn 16s
Bit rate mode : Constant
Bit rate : 192 Kbps
Channel(s) : 2 channels
Channel positions : Front: L R
Sampling rate : 48.0 KHz
Bit depth : 16 bits
Compression mode : Lossy
Stream size : 22.3 MiB (2%)
Menu
General
Complete name : D:\Мои релизы\Ma salama Jamil [DVD9]\VIDEO_TS\VTS_01_2.VOB
Format : MPEG-PS
File size : 1 024 MiB
Duration : 16mn 16s
Overall bit rate : 8 796 Kbps
Video
ID : 224 (0xE0)
Format : MPEG Video
Format version : Version 2
Format profile : Main@Main
Format settings, BVOP : Yes
Format settings, Matrix : Default
Format settings, GOP : M=3, N=13
Duration : 16mn 16s
Bit rate mode : Variable
Bit rate : 8 000 Kbps
Width : 720 pixels
Height : 576 pixels
Display aspect ratio : 2.35:1
Frame rate : 25.000 fps
Standard : PAL
Color space : YUV
Chroma subsampling : 4:2:0
Bit depth : 8 bits
Scan type : Interlaced
Scan order : Top Field First
Compression mode : Lossy
Bits/(Pixel*Frame) : 0.772
Stream size : 929 MiB (91%)
Audio #1
ID : 128 (0x80)
Format : AC-3
Format/Info : Audio Coding 3
Mode extension : CM (complete main)
Duration : 16mn 16s
Bit rate mode : Constant
Bit rate : 448 Kbps
Channel(s) : 6 channels
Channel positions : Front: L C R, Side: L R, LFE
Sampling rate : 48.0 KHz
Bit depth : 16 bits
Compression mode : Lossy
Video delay : -592ms
Stream size : 52.2 MiB (5%)
Audio #2
ID : 129 (0x81)
Format : AC-3
Format/Info : Audio Coding 3
Mode extension : CM (complete main)
Duration : 16mn 16s
Bit rate mode : Constant
Bit rate : 192 Kbps
Channel(s) : 2 channels
Channel positions : Front: L R
Sampling rate : 48.0 KHz
Bit depth : 16 bits
Compression mode : Lossy
Video delay : -560ms
Stream size : 22.4 MiB (2%)
Text #1
ID : 32 (0x20)
Format : RLE
Format/Info : Run-length encoding
Duration : 16mn 15s
Video delay : 800ms
Text #2
ID : 33 (0x21)
Format : RLE
Format/Info : Run-length encoding
Duration : 16mn 15s
Video delay : 760ms
Text #3
ID : 34 (0x22)
Format : RLE
Format/Info : Run-length encoding
Duration : 16mn 15s
Video delay : 760ms
Menu
General
Complete name : D:\Мои релизы\Ma salama Jamil [DVD9]\VIDEO_TS\VTS_01_3.VOB
Format : MPEG-PS
File size : 1 024 MiB
Duration : 16mn 16s
Overall bit rate : 8 800 Kbps
Video
ID : 224 (0xE0)
Format : MPEG Video
Format version : Version 2
Format profile : Main@Main
Format settings, BVOP : Yes
Format settings, Matrix : Default
Format settings, GOP : M=3, N=13
Duration : 16mn 15s
Bit rate mode : Variable
Bit rate : 8 000 Kbps
Width : 720 pixels
Height : 576 pixels
Display aspect ratio : 2.35:1
Frame rate : 25.000 fps
Standard : PAL
Color space : YUV
Chroma subsampling : 4:2:0
Bit depth : 8 bits
Scan type : Interlaced
Scan order : Top Field First
Compression mode : Lossy
Bits/(Pixel*Frame) : 0.772
Stream size : 929 MiB (91%)
Audio #1
ID : 128 (0x80)
Format : AC-3
Format/Info : Audio Coding 3
Mode extension : CM (complete main)
Duration : 16mn 16s
Bit rate mode : Constant
Bit rate : 448 Kbps
Channel(s) : 6 channels
Channel positions : Front: L C R, Side: L R, LFE
Sampling rate : 48.0 KHz
Bit depth : 16 bits
Compression mode : Lossy
Video delay : -576ms
Stream size : 52.1 MiB (5%)
Audio #2
ID : 129 (0x81)
Format : AC-3
Format/Info : Audio Coding 3
Mode extension : CM (complete main)
Duration : 16mn 16s
Bit rate mode : Constant
Bit rate : 192 Kbps
Channel(s) : 2 channels
Channel positions : Front: L R
Sampling rate : 48.0 KHz
Bit depth : 16 bits
Compression mode : Lossy
Video delay : -512ms
Stream size : 22.3 MiB (2%)
Text #1
ID : 32 (0x20)
Format : RLE
Format/Info : Run-length encoding
Text #2
ID : 33 (0x21)
Format : RLE
Format/Info : Run-length encoding
Text #3
ID : 34 (0x22)
Format : RLE
Format/Info : Run-length encoding
Menu
General
Complete name : D:\Мои релизы\Ma salama Jamil [DVD9]\VIDEO_TS\VTS_01_4.VOB
Format : MPEG-PS
File size : 1 024 MiB
Duration : 16mn 16s
Overall bit rate : 8 795 Kbps
Video
ID : 224 (0xE0)
Format : MPEG Video
Format version : Version 2
Format profile : Main@Main
Format settings, BVOP : Yes
Format settings, Matrix : Default
Format settings, GOP : M=3, N=13
Duration : 16mn 16s
Bit rate mode : Variable
Bit rate : 8 000 Kbps
Width : 720 pixels
Height : 576 pixels
Display aspect ratio : 2.35:1
Frame rate : 25.000 fps
Standard : PAL
Color space : YUV
Chroma subsampling : 4:2:0
Bit depth : 8 bits
Scan type : Interlaced
Scan order : Top Field First
Compression mode : Lossy
Bits/(Pixel*Frame) : 0.772
Stream size : 929 MiB (91%)
Audio #1
ID : 128 (0x80)
Format : AC-3
Format/Info : Audio Coding 3
Mode extension : CM (complete main)
Duration : 16mn 16s
Bit rate mode : Constant
Bit rate : 448 Kbps
Channel(s) : 6 channels
Channel positions : Front: L C R, Side: L R, LFE
Sampling rate : 48.0 KHz
Bit depth : 16 bits
Compression mode : Lossy
Video delay : -488ms
Stream size : 52.2 MiB (5%)
Audio #2
ID : 129 (0x81)
Format : AC-3
Format/Info : Audio Coding 3
Mode extension : CM (complete main)
Duration : 16mn 16s
Bit rate mode : Constant
Bit rate : 192 Kbps
Channel(s) : 2 channels
Channel positions : Front: L R
Sampling rate : 48.0 KHz
Bit depth : 16 bits
Compression mode : Lossy
Video delay : -392ms
Stream size : 22.4 MiB (2%)
Text #1
ID : 33 (0x21)
Format : RLE
Format/Info : Run-length encoding
Duration : 16mn 14s
Video delay : 1s 320ms
Text #2
ID : 34 (0x22)
Format : RLE
Format/Info : Run-length encoding
Duration : 16mn 14s
Video delay : 1s 320ms
Menu
General
Complete name : D:\Мои релизы\Ma salama Jamil [DVD9]\VIDEO_TS\VTS_01_5.VOB
Format : MPEG-PS
File size : 1 024 MiB
Duration : 16mn 16s
Overall bit rate : 8 793 Kbps
Video
ID : 224 (0xE0)
Format : MPEG Video
Format version : Version 2
Format profile : Main@Main
Format settings, BVOP : Yes
Format settings, Matrix : Default
Format settings, GOP : M=3, N=13
Duration : 16mn 16s
Bit rate mode : Variable
Bit rate : 8 000 Kbps
Width : 720 pixels
Height : 576 pixels
Display aspect ratio : 2.35:1
Frame rate : 25.000 fps
Standard : PAL
Color space : YUV
Chroma subsampling : 4:2:0
Bit depth : 8 bits
Scan type : Interlaced
Scan order : Top Field First
Compression mode : Lossy
Bits/(Pixel*Frame) : 0.772
Stream size : 929 MiB (91%)
Audio #1
ID : 128 (0x80)
Format : AC-3
Format/Info : Audio Coding 3
Mode extension : CM (complete main)
Duration : 16mn 16s
Bit rate mode : Constant
Bit rate : 448 Kbps
Channel(s) : 6 channels
Channel positions : Front: L C R, Side: L R, LFE
Sampling rate : 48.0 KHz
Bit depth : 16 bits
Compression mode : Lossy
Video delay : -344ms
Stream size : 52.2 MiB (5%)
Audio #2
ID : 129 (0x81)
Format : AC-3
Format/Info : Audio Coding 3
Mode extension : CM (complete main)
Duration : 16mn 16s
Bit rate mode : Constant
Bit rate : 192 Kbps
Channel(s) : 2 channels
Channel positions : Front: L R
Sampling rate : 48.0 KHz
Bit depth : 16 bits
Compression mode : Lossy
Video delay : -280ms
Stream size : 22.4 MiB (2%)
Text #1
ID : 32 (0x20)
Format : RLE
Format/Info : Run-length encoding
Video delay : 1s 840ms
Text #2
ID : 33 (0x21)
Format : RLE
Format/Info : Run-length encoding
Video delay : 1s 920ms
Text #3
ID : 34 (0x22)
Format : RLE
Format/Info : Run-length encoding
Video delay : 1s 920ms
Menu
General
Complete name : D:\Мои релизы\Ma salama Jamil [DVD9]\VIDEO_TS\VTS_01_6.VOB
Format : MPEG-PS
File size : 289 MiB
Duration : 4mn 37s
Overall bit rate : 8 765 Kbps
Video
ID : 224 (0xE0)
Format : MPEG Video
Format version : Version 2
Format profile : Main@Main
Format settings, BVOP : Yes
Format settings, Matrix : Default
Format settings, GOP : M=3, N=13
Duration : 4mn 36s
Bit rate mode : Variable
Bit rate : 8 000 Kbps
Width : 720 pixels
Height : 576 pixels
Display aspect ratio : 2.35:1
Frame rate : 25.000 fps
Standard : PAL
Color space : YUV
Chroma subsampling : 4:2:0
Bit depth : 8 bits
Scan type : Interlaced
Scan order : Top Field First
Compression mode : Lossy
Bits/(Pixel*Frame) : 0.772
Stream size : 262 MiB (90%)
Audio #1
ID : 128 (0x80)
Format : AC-3
Format/Info : Audio Coding 3
Mode extension : CM (complete main)
Duration : 4mn 37s
Bit rate mode : Constant
Bit rate : 448 Kbps
Channel(s) : 6 channels
Channel positions : Front: L C R, Side: L R, LFE
Sampling rate : 48.0 KHz
Bit depth : 16 bits
Compression mode : Lossy
Video delay : -496ms
Stream size : 14.8 MiB (5%)
Audio #2
ID : 129 (0x81)
Format : AC-3
Format/Info : Audio Coding 3
Mode extension : CM (complete main)
Duration : 4mn 36s
Bit rate mode : Constant
Bit rate : 192 Kbps
Channel(s) : 2 channels
Channel positions : Front: L R
Sampling rate : 48.0 KHz
Bit depth : 16 bits
Compression mode : Lossy
Video delay : -464ms
Stream size : 6.34 MiB (2%)
Menu
General
Complete name : D:\Мои релизы\Ma salama Jamil [DVD9]\VIDEO_TS\VTS_02_0.BUP
Format : DVD Video
Format profile : Program
File size : 18.0 KiB
Duration : 480ms
Overall bit rate : 307 Kbps
Video
ID : 224 (0xE0)
Format : MPEG Video
Format version : Version 2
Duration : 480ms
Bit rate mode : Variable
Width : 720 pixels
Height : 576 pixels
Display aspect ratio : 16:9
Frame rate : 25.000 fps
Standard : PAL
Compression mode : Lossy
Audio
ID : 128 (0x80)
Format : AC-3
Format/Info : Audio Coding 3
Duration : 480ms
Channel(s) : 2 channels
Sampling rate : 48.0 KHz
Compression mode : Lossy
Menu
Duration : 480ms
00:00:00.000 : Chapter 1
List (Audio) : 0
General
Complete name : D:\Мои релизы\Ma salama Jamil [DVD9]\VIDEO_TS\VTS_02_0.IFO
Format : DVD Video
Format profile : Program
File size : 18.0 KiB
Duration : 480ms
Overall bit rate : 307 Kbps
Video
ID : 224 (0xE0)
Format : MPEG Video
Format version : Version 2
Duration : 480ms
Bit rate mode : Variable
Width : 720 pixels
Height : 576 pixels
Display aspect ratio : 16:9
Frame rate : 25.000 fps
Standard : PAL
Compression mode : Lossy
Audio
ID : 128 (0x80)
Format : AC-3
Format/Info : Audio Coding 3
Duration : 480ms
Channel(s) : 2 channels
Sampling rate : 48.0 KHz
Compression mode : Lossy
Menu
Duration : 480ms
00:00:00.000 : Chapter 1
List (Audio) : 0
General
Complete name : D:\Мои релизы\Ma salama Jamil [DVD9]\VIDEO_TS\VTS_02_0.VOB
Format : MPEG-PS
File size : 10.0 KiB
Duration : 40ms
Overall bit rate : 2 048 Kbps
Video
ID : 224 (0xE0)
Format : MPEG Video
Format version : Version 2
Format profile : Main@Main
Format settings, BVOP : No
Format settings, Matrix : Default
Duration : 40ms
Bit rate mode : Constant
Bit rate : 8 000 Kbps
Width : 720 pixels
Height : 576 pixels
Display aspect ratio : 16:9
Frame rate : 25.000 fps
Standard : PAL
Color space : YUV
Chroma subsampling : 4:2:0
Bit depth : 8 bits
Scan type : Progressive
Scan order : Top Field First
Compression mode : Lossy
Bits/(Pixel*Frame) : 0.772
Stream size : 39.1 KiB
Menu
General
Complete name : D:\Мои релизы\Ma salama Jamil [DVD9]\VIDEO_TS\VTS_02_1.VOB
Format : MPEG-PS
File size : 10.0 KiB
Duration : 40ms
Overall bit rate : 2 048 Kbps
Video
ID : 224 (0xE0)
Format : MPEG Video
Format version : Version 2
Format profile : Main@Main
Format settings, BVOP : No
Format settings, Matrix : Default
Duration : 40ms
Bit rate mode : Constant
Bit rate : 8 000 Kbps
Width : 720 pixels
Height : 576 pixels
Display aspect ratio : 16:9
Frame rate : 25.000 fps
Standard : PAL
Color space : YUV
Chroma subsampling : 4:2:0
Bit depth : 8 bits
Scan type : Progressive
Scan order : Top Field First
Compression mode : Lossy
Bits/(Pixel*Frame) : 0.772
Stream size : 39.1 KiB
Menu
General
Complete name : D:\Мои релизы\Ma salama Jamil [DVD9]\VIDEO_TS\VTS_03_0.BUP
Format : DVD Video
Format profile : Program
File size : 18.0 KiB
Duration : 960ms
Overall bit rate : 154 Kbps
Video
ID : 224 (0xE0)
Format : MPEG Video
Format version : Version 2
Duration : 960ms
Bit rate mode : Variable
Width : 720 pixels
Height : 576 pixels
Display aspect ratio : 16:9
Frame rate : 25.000 fps
Standard : PAL
Compression mode : Lossy
Audio
ID : 128 (0x80)
Format : AC-3
Format/Info : Audio Coding 3
Duration : 960ms
Channel(s) : 2 channels
Sampling rate : 48.0 KHz
Compression mode : Lossy
Language : Arabic
Text #1
ID : 32 (0x20)
Format : RLE
Format/Info : Run-length encoding
Bit depth : 2 bits
Language : Danish
Text #2
ID : 33 (0x21)
Format : RLE
Format/Info : Run-length encoding
Bit depth : 2 bits
Menu
Duration : 960ms
00:00:00.000 : Chapter 1
00:00:00.480 : Chapter 2
List (Audio) : 0
List (Subtitles 4/3) : 0 / 0
List (Subtitles Wide) : 0 / 1
List (Subtitles Letterbox) : 0 / 1
List (Subtitles Pan&Scan) : 0 / 0
General
Complete name : D:\Мои релизы\Ma salama Jamil [DVD9]\VIDEO_TS\VTS_03_0.IFO
Format : DVD Video
Format profile : Program
File size : 18.0 KiB
Duration : 960ms
Overall bit rate : 154 Kbps
Video
ID : 224 (0xE0)
Format : MPEG Video
Format version : Version 2
Duration : 960ms
Bit rate mode : Variable
Width : 720 pixels
Height : 576 pixels
Display aspect ratio : 16:9
Frame rate : 25.000 fps
Standard : PAL
Compression mode : Lossy
Audio
ID : 128 (0x80)
Format : AC-3
Format/Info : Audio Coding 3
Duration : 960ms
Channel(s) : 2 channels
Sampling rate : 48.0 KHz
Compression mode : Lossy
Language : Arabic
Text #1
ID : 32 (0x20)
Format : RLE
Format/Info : Run-length encoding
Bit depth : 2 bits
Language : Danish
Text #2
ID : 33 (0x21)
Format : RLE
Format/Info : Run-length encoding
Bit depth : 2 bits
Menu
Duration : 960ms
00:00:00.000 : Chapter 1
00:00:00.480 : Chapter 2
List (Audio) : 0
List (Subtitles 4/3) : 0 / 0
List (Subtitles Wide) : 0 / 1
List (Subtitles Letterbox) : 0 / 1
List (Subtitles Pan&Scan) : 0 / 0
General
Complete name : D:\Мои релизы\Ma salama Jamil [DVD9]\VIDEO_TS\VTS_03_0.VOB
Format : MPEG-PS
File size : 10.0 KiB
Duration : 40ms
Overall bit rate : 2 048 Kbps
Video
ID : 224 (0xE0)
Format : MPEG Video
Format version : Version 2
Format profile : Main@Main
Format settings, BVOP : No
Format settings, Matrix : Default
Duration : 40ms
Bit rate mode : Constant
Bit rate : 8 000 Kbps
Width : 720 pixels
Height : 576 pixels
Display aspect ratio : 16:9
Frame rate : 25.000 fps
Standard : PAL
Color space : YUV
Chroma subsampling : 4:2:0
Bit depth : 8 bits
Scan type : Progressive
Scan order : Top Field First
Compression mode : Lossy
Bits/(Pixel*Frame) : 0.772
Stream size : 39.1 KiB
Menu
General
Complete name : D:\Мои релизы\Ma salama Jamil [DVD9]\VIDEO_TS\VTS_03_1.VOB
Format : MPEG-PS
File size : 20.0 KiB
Duration : 40ms
Overall bit rate : 4 096 Kbps
Video
ID : 224 (0xE0)
Format : MPEG Video
Format version : Version 2
Format profile : Main@Main
Format settings, BVOP : No
Format settings, Matrix : Default
Format settings, GOP : N=1
Duration : 40ms
Bit rate mode : Constant
Bit rate : 8 000 Kbps
Width : 720 pixels
Height : 576 pixels
Display aspect ratio : 16:9
Frame rate : 25.000 fps
Standard : PAL
Color space : YUV
Chroma subsampling : 4:2:0
Bit depth : 8 bits
Scan type : Progressive
Scan order : Top Field First
Compression mode : Lossy
Bits/(Pixel*Frame) : 0.772
Stream size : 39.1 KiB
Menu
General
Complete name : D:\Мои релизы\Ma salama Jamil [DVD9]\VIDEO_TS\VTS_04_0.BUP
Format : DVD Video
Format profile : Program
File size : 18.0 KiB
Duration : 960ms
Overall bit rate : 154 Kbps
Video
ID : 224 (0xE0)
Format : MPEG Video
Format version : Version 2
Duration : 960ms
Bit rate mode : Variable
Width : 720 pixels
Height : 576 pixels
Display aspect ratio : 16:9
Frame rate : 25.000 fps
Standard : PAL
Compression mode : Lossy
Audio
ID : 128 (0x80)
Format : AC-3
Format/Info : Audio Coding 3
Duration : 960ms
Channel(s) : 2 channels
Sampling rate : 48.0 KHz
Compression mode : Lossy
Language : Arabic
Menu
Duration : 960ms
00:00:00.000 : Chapter 1
00:00:00.480 : Chapter 2
List (Audio) : 0
General
Complete name : D:\Мои релизы\Ma salama Jamil [DVD9]\VIDEO_TS\VTS_04_0.IFO
Format : DVD Video
Format profile : Program
File size : 18.0 KiB
Duration : 960ms
Overall bit rate : 154 Kbps
Video
ID : 224 (0xE0)
Format : MPEG Video
Format version : Version 2
Duration : 960ms
Bit rate mode : Variable
Width : 720 pixels
Height : 576 pixels
Display aspect ratio : 16:9
Frame rate : 25.000 fps
Standard : PAL
Compression mode : Lossy
Audio
ID : 128 (0x80)
Format : AC-3
Format/Info : Audio Coding 3
Duration : 960ms
Channel(s) : 2 channels
Sampling rate : 48.0 KHz
Compression mode : Lossy
Language : Arabic
Menu
Duration : 960ms
00:00:00.000 : Chapter 1
00:00:00.480 : Chapter 2
List (Audio) : 0
General
Complete name : D:\Мои релизы\Ma salama Jamil [DVD9]\VIDEO_TS\VTS_04_0.VOB
Format : MPEG-PS
File size : 10.0 KiB
Duration : 40ms
Overall bit rate : 2 048 Kbps
Video
ID : 224 (0xE0)
Format : MPEG Video
Format version : Version 2
Format profile : Main@Main
Format settings, BVOP : No
Format settings, Matrix : Default
Duration : 40ms
Bit rate mode : Constant
Bit rate : 8 000 Kbps
Width : 720 pixels
Height : 576 pixels
Display aspect ratio : 16:9
Frame rate : 25.000 fps
Standard : PAL
Color space : YUV
Chroma subsampling : 4:2:0
Bit depth : 8 bits
Scan type : Progressive
Scan order : Top Field First
Compression mode : Lossy
Bits/(Pixel*Frame) : 0.772
Stream size : 39.1 KiB
Menu
General
Complete name : D:\Мои релизы\Ma salama Jamil [DVD9]\VIDEO_TS\VTS_04_1.VOB
Format : MPEG-PS
File size : 20.0 KiB
Duration : 40ms
Overall bit rate : 4 096 Kbps
Video
ID : 224 (0xE0)
Format : MPEG Video
Format version : Version 2
Format profile : Main@Main
Format settings, BVOP : No
Format settings, Matrix : Default
Format settings, GOP : N=1
Duration : 40ms
Bit rate mode : Constant
Bit rate : 8 000 Kbps
Width : 720 pixels
Height : 576 pixels
Display aspect ratio : 16:9
Frame rate : 25.000 fps
Standard : PAL
Color space : YUV
Chroma subsampling : 4:2:0
Bit depth : 8 bits
Scan type : Progressive
Scan order : Top Field First
Compression mode : Lossy
Bits/(Pixel*Frame) : 0.772
Stream size : 39.1 KiB
Menu
General
Complete name : D:\Мои релизы\Ma salama Jamil [DVD9]\VIDEO_TS\VTS_05_0.BUP
Format : DVD Video
Format profile : Program
File size : 18.0 KiB
Duration : 960ms
Overall bit rate : 154 Kbps
Video
ID : 224 (0xE0)
Format : MPEG Video
Format version : Version 2
Duration : 960ms
Bit rate mode : Variable
Width : 720 pixels
Height : 576 pixels
Display aspect ratio : 16:9
Frame rate : 25.000 fps
Standard : PAL
Compression mode : Lossy
Audio
ID : 128 (0x80)
Format : AC-3
Format/Info : Audio Coding 3
Duration : 960ms
Channel(s) : 2 channels
Sampling rate : 48.0 KHz
Compression mode : Lossy
Language : Arabic
Menu
Duration : 960ms
00:00:00.000 : Chapter 1
00:00:00.480 : Chapter 2
List (Audio) : 0
General
Complete name : D:\Мои релизы\Ma salama Jamil [DVD9]\VIDEO_TS\VTS_05_0.IFO
Format : DVD Video
Format profile : Program
File size : 18.0 KiB
Duration : 960ms
Overall bit rate : 154 Kbps
Video
ID : 224 (0xE0)
Format : MPEG Video
Format version : Version 2
Duration : 960ms
Bit rate mode : Variable
Width : 720 pixels
Height : 576 pixels
Display aspect ratio : 16:9
Frame rate : 25.000 fps
Standard : PAL
Compression mode : Lossy
Audio
ID : 128 (0x80)
Format : AC-3
Format/Info : Audio Coding 3
Duration : 960ms
Channel(s) : 2 channels
Sampling rate : 48.0 KHz
Compression mode : Lossy
Language : Arabic
Menu
Duration : 960ms
00:00:00.000 : Chapter 1
00:00:00.480 : Chapter 2
List (Audio) : 0
General
Complete name : D:\Мои релизы\Ma salama Jamil [DVD9]\VIDEO_TS\VTS_05_0.VOB
Format : MPEG-PS
File size : 10.0 KiB
Duration : 40ms
Overall bit rate : 2 048 Kbps
Video
ID : 224 (0xE0)
Format : MPEG Video
Format version : Version 2
Format profile : Main@Main
Format settings, BVOP : No
Format settings, Matrix : Default
Duration : 40ms
Bit rate mode : Constant
Bit rate : 8 000 Kbps
Width : 720 pixels
Height : 576 pixels
Display aspect ratio : 16:9
Frame rate : 25.000 fps
Standard : PAL
Color space : YUV
Chroma subsampling : 4:2:0
Bit depth : 8 bits
Scan type : Progressive
Scan order : Top Field First
Compression mode : Lossy
Bits/(Pixel*Frame) : 0.772
Stream size : 39.1 KiB
Menu
General
Complete name : D:\Мои релизы\Ma salama Jamil [DVD9]\VIDEO_TS\VTS_05_1.VOB
Format : MPEG-PS
File size : 20.0 KiB
Duration : 40ms
Overall bit rate : 4 096 Kbps
Video
ID : 224 (0xE0)
Format : MPEG Video
Format version : Version 2
Format profile : Main@Main
Format settings, BVOP : No
Format settings, Matrix : Default
Format settings, GOP : N=1
Duration : 40ms
Bit rate mode : Constant
Bit rate : 8 000 Kbps
Width : 720 pixels
Height : 576 pixels
Display aspect ratio : 16:9
Frame rate : 25.000 fps
Standard : PAL
Color space : YUV
Chroma subsampling : 4:2:0
Bit depth : 8 bits
Scan type : Progressive
Scan order : Top Field First
Compression mode : Lossy
Bits/(Pixel*Frame) : 0.772
Stream size : 39.1 KiB
Menu
General
Complete name : D:\Мои релизы\Ma salama Jamil [DVD9]\VIDEO_TS\VTS_06_0.BUP
Format : DVD Video
Format profile : Program
File size : 18.0 KiB
Duration : 960ms
Overall bit rate : 154 Kbps
Video
ID : 224 (0xE0)
Format : MPEG Video
Format version : Version 2
Duration : 960ms
Bit rate mode : Variable
Width : 720 pixels
Height : 576 pixels
Display aspect ratio : 16:9
Frame rate : 25.000 fps
Standard : PAL
Compression mode : Lossy
Audio
ID : 128 (0x80)
Format : AC-3
Format/Info : Audio Coding 3
Duration : 960ms
Channel(s) : 2 channels
Sampling rate : 48.0 KHz
Compression mode : Lossy
Language : Arabic
Menu
Duration : 960ms
00:00:00.000 : Chapter 1
00:00:00.480 : Chapter 2
List (Audio) : 0
General
Complete name : D:\Мои релизы\Ma salama Jamil [DVD9]\VIDEO_TS\VTS_06_0.IFO
Format : DVD Video
Format profile : Program
File size : 18.0 KiB
Duration : 960ms
Overall bit rate : 154 Kbps
Video
ID : 224 (0xE0)
Format : MPEG Video
Format version : Version 2
Duration : 960ms
Bit rate mode : Variable
Width : 720 pixels
Height : 576 pixels
Display aspect ratio : 16:9
Frame rate : 25.000 fps
Standard : PAL
Compression mode : Lossy
Audio
ID : 128 (0x80)
Format : AC-3
Format/Info : Audio Coding 3
Duration : 960ms
Channel(s) : 2 channels
Sampling rate : 48.0 KHz
Compression mode : Lossy
Language : Arabic
Menu
Duration : 960ms
00:00:00.000 : Chapter 1
00:00:00.480 : Chapter 2
List (Audio) : 0
General
Complete name : D:\Мои релизы\Ma salama Jamil [DVD9]\VIDEO_TS\VTS_06_0.VOB
Format : MPEG-PS
File size : 10.0 KiB
Duration : 40ms
Overall bit rate : 2 048 Kbps
Video
ID : 224 (0xE0)
Format : MPEG Video
Format version : Version 2
Format profile : Main@Main
Format settings, BVOP : No
Format settings, Matrix : Default
Duration : 40ms
Bit rate mode : Constant
Bit rate : 8 000 Kbps
Width : 720 pixels
Height : 576 pixels
Display aspect ratio : 16:9
Frame rate : 25.000 fps
Standard : PAL
Color space : YUV
Chroma subsampling : 4:2:0
Bit depth : 8 bits
Scan type : Progressive
Scan order : Top Field First
Compression mode : Lossy
Bits/(Pixel*Frame) : 0.772
Stream size : 39.1 KiB
Menu
General
Complete name : D:\Мои релизы\Ma salama Jamil [DVD9]\VIDEO_TS\VTS_06_1.VOB
Format : MPEG-PS
File size : 20.0 KiB
Duration : 40ms
Overall bit rate : 4 096 Kbps
Video
ID : 224 (0xE0)
Format : MPEG Video
Format version : Version 2
Format profile : Main@Main
Format settings, BVOP : No
Format settings, Matrix : Default
Format settings, GOP : N=1
Duration : 40ms
Bit rate mode : Constant
Bit rate : 8 000 Kbps
Width : 720 pixels
Height : 576 pixels
Display aspect ratio : 16:9
Frame rate : 25.000 fps
Standard : PAL
Color space : YUV
Chroma subsampling : 4:2:0
Bit depth : 8 bits
Scan type : Progressive
Scan order : Top Field First
Compression mode : Lossy
Bits/(Pixel*Frame) : 0.772
Stream size : 39.1 KiB
Menu
General
Complete name : D:\Мои релизы\Ma salama Jamil [DVD9]\VIDEO_TS\VTS_07_0.BUP
Format : DVD Video
Format profile : Program
File size : 18.0 KiB
Duration : 960ms
Overall bit rate : 154 Kbps
Video
ID : 224 (0xE0)
Format : MPEG Video
Format version : Version 2
Duration : 960ms
Bit rate mode : Variable
Width : 720 pixels
Height : 576 pixels
Display aspect ratio : 16:9
Frame rate : 25.000 fps
Standard : PAL
Compression mode : Lossy
Audio
ID : 128 (0x80)
Format : AC-3
Format/Info : Audio Coding 3
Duration : 960ms
Channel(s) : 2 channels
Sampling rate : 48.0 KHz
Compression mode : Lossy
Language : Arabic
Menu
Duration : 960ms
00:00:00.000 : Chapter 1
00:00:00.480 : Chapter 2
List (Audio) : 0
General
Complete name : D:\Мои релизы\Ma salama Jamil [DVD9]\VIDEO_TS\VTS_07_0.IFO
Format : DVD Video
Format profile : Program
File size : 18.0 KiB
Duration : 960ms
Overall bit rate : 154 Kbps
Video
ID : 224 (0xE0)
Format : MPEG Video
Format version : Version 2
Duration : 960ms
Bit rate mode : Variable
Width : 720 pixels
Height : 576 pixels
Display aspect ratio : 16:9
Frame rate : 25.000 fps
Standard : PAL
Compression mode : Lossy
Audio
ID : 128 (0x80)
Format : AC-3
Format/Info : Audio Coding 3
Duration : 960ms
Channel(s) : 2 channels
Sampling rate : 48.0 KHz
Compression mode : Lossy
Language : Arabic
Menu
Duration : 960ms
00:00:00.000 : Chapter 1
00:00:00.480 : Chapter 2
List (Audio) : 0
General
Complete name : D:\Мои релизы\Ma salama Jamil [DVD9]\VIDEO_TS\VTS_07_0.VOB
Format : MPEG-PS
File size : 10.0 KiB
Duration : 40ms
Overall bit rate : 2 048 Kbps
Video
ID : 224 (0xE0)
Format : MPEG Video
Format version : Version 2
Format profile : Main@Main
Format settings, BVOP : No
Format settings, Matrix : Default
Duration : 40ms
Bit rate mode : Constant
Bit rate : 8 000 Kbps
Width : 720 pixels
Height : 576 pixels
Display aspect ratio : 16:9
Frame rate : 25.000 fps
Standard : PAL
Color space : YUV
Chroma subsampling : 4:2:0
Bit depth : 8 bits
Scan type : Progressive
Scan order : Top Field First
Compression mode : Lossy
Bits/(Pixel*Frame) : 0.772
Stream size : 39.1 KiB
Menu
General
Complete name : D:\Мои релизы\Ma salama Jamil [DVD9]\VIDEO_TS\VTS_07_1.VOB
Format : MPEG-PS
File size : 20.0 KiB
Duration : 40ms
Overall bit rate : 4 096 Kbps
Video
ID : 224 (0xE0)
Format : MPEG Video
Format version : Version 2
Format profile : Main@Main
Format settings, BVOP : No
Format settings, Matrix : Default
Format settings, GOP : N=1
Duration : 40ms
Bit rate mode : Constant
Bit rate : 8 000 Kbps
Width : 720 pixels
Height : 576 pixels
Display aspect ratio : 16:9
Frame rate : 25.000 fps
Standard : PAL
Color space : YUV
Chroma subsampling : 4:2:0
Bit depth : 8 bits
Scan type : Progressive
Scan order : Top Field First
Compression mode : Lossy
Bits/(Pixel*Frame) : 0.772
Stream size : 39.1 KiB
Menu
General
Complete name : D:\Мои релизы\Ma salama Jamil [DVD9]\VIDEO_TS\VTS_08_0.BUP
Format : DVD Video
Format profile : Program
File size : 18.0 KiB
Duration : 960ms
Overall bit rate : 154 Kbps
Video
ID : 224 (0xE0)
Format : MPEG Video
Format version : Version 2
Duration : 960ms
Bit rate mode : Variable
Width : 720 pixels
Height : 576 pixels
Display aspect ratio : 16:9
Frame rate : 25.000 fps
Standard : PAL
Compression mode : Lossy
Audio
ID : 128 (0x80)
Format : AC-3
Format/Info : Audio Coding 3
Duration : 960ms
Channel(s) : 2 channels
Sampling rate : 48.0 KHz
Compression mode : Lossy
Language : Arabic
Menu
Duration : 960ms
00:00:00.000 : Chapter 1
00:00:00.480 : Chapter 2
List (Audio) : 0
General
Complete name : D:\Мои релизы\Ma salama Jamil [DVD9]\VIDEO_TS\VTS_08_0.IFO
Format : DVD Video
Format profile : Program
File size : 18.0 KiB
Duration : 960ms
Overall bit rate : 154 Kbps
Video
ID : 224 (0xE0)
Format : MPEG Video
Format version : Version 2
Duration : 960ms
Bit rate mode : Variable
Width : 720 pixels
Height : 576 pixels
Display aspect ratio : 16:9
Frame rate : 25.000 fps
Standard : PAL
Compression mode : Lossy
Audio
ID : 128 (0x80)
Format : AC-3
Format/Info : Audio Coding 3
Duration : 960ms
Channel(s) : 2 channels
Sampling rate : 48.0 KHz
Compression mode : Lossy
Language : Arabic
Menu
Duration : 960ms
00:00:00.000 : Chapter 1
00:00:00.480 : Chapter 2
List (Audio) : 0
General
Complete name : D:\Мои релизы\Ma salama Jamil [DVD9]\VIDEO_TS\VTS_08_0.VOB
Format : MPEG-PS
File size : 10.0 KiB
Duration : 40ms
Overall bit rate : 2 048 Kbps
Video
ID : 224 (0xE0)
Format : MPEG Video
Format version : Version 2
Format profile : Main@Main
Format settings, BVOP : No
Format settings, Matrix : Default
Duration : 40ms
Bit rate mode : Constant
Bit rate : 8 000 Kbps
Width : 720 pixels
Height : 576 pixels
Display aspect ratio : 16:9
Frame rate : 25.000 fps
Standard : PAL
Color space : YUV
Chroma subsampling : 4:2:0
Bit depth : 8 bits
Scan type : Progressive
Scan order : Top Field First
Compression mode : Lossy
Bits/(Pixel*Frame) : 0.772
Stream size : 39.1 KiB
Menu
General
Complete name : D:\Мои релизы\Ma salama Jamil [DVD9]\VIDEO_TS\VTS_08_1.VOB
Format : MPEG-PS
File size : 20.0 KiB
Duration : 40ms
Overall bit rate : 4 096 Kbps
Video
ID : 224 (0xE0)
Format : MPEG Video
Format version : Version 2
Format profile : Main@Main
Format settings, BVOP : No
Format settings, Matrix : Default
Format settings, GOP : N=1
Duration : 40ms
Bit rate mode : Constant
Bit rate : 8 000 Kbps
Width : 720 pixels
Height : 576 pixels
Display aspect ratio : 16:9
Frame rate : 25.000 fps
Standard : PAL
Color space : YUV
Chroma subsampling : 4:2:0
Bit depth : 8 bits
Scan type : Progressive
Scan order : Top Field First
Compression mode : Lossy
Bits/(Pixel*Frame) : 0.772
Stream size : 39.1 KiB
Menu
General
Complete name : D:\Мои релизы\Ma salama Jamil [DVD9]\VIDEO_TS\VTS_09_0.BUP
Format : DVD Video
Format profile : Program
File size : 18.0 KiB
Duration : 1mn 59s
Overall bit rate : 1 230 bps
Video
ID : 224 (0xE0)
Format : MPEG Video
Format version : Version 2
Duration : 1mn 59s
Bit rate mode : Variable
Width : 720 pixels
Height : 576 pixels
Display aspect ratio : 16:9
Frame rate : 25.000 fps
Standard : PAL
Compression mode : Lossy
Audio
ID : 128 (0x80)
Format : AC-3
Format/Info : Audio Coding 3
Duration : 1mn 59s
Channel(s) : 2 channels
Sampling rate : 48.0 KHz
Compression mode : Lossy
Language : Arabic
Text #1
ID : 32 (0x20)
Format : RLE
Format/Info : Run-length encoding
Bit depth : 2 bits
Text #2
ID : 33 (0x21)
Format : RLE
Format/Info : Run-length encoding
Bit depth : 2 bits
Language : English
Menu
Duration : 1mn 59s
00:00:00.000 : Chapter 1
00:01:59.400 : Chapter 2
List (Audio) : 0
List (Subtitles 4/3) : 0 / 0
List (Subtitles Wide) : 0 / 1
List (Subtitles Letterbox) : 0 / 1
List (Subtitles Pan&Scan) : 0 / 0
General
Complete name : D:\Мои релизы\Ma salama Jamil [DVD9]\VIDEO_TS\VTS_09_0.IFO
Format : DVD Video
Format profile : Program
File size : 18.0 KiB
Duration : 1mn 59s
Overall bit rate : 1 230 bps
Video
ID : 224 (0xE0)
Format : MPEG Video
Format version : Version 2
Duration : 1mn 59s
Bit rate mode : Variable
Width : 720 pixels
Height : 576 pixels
Display aspect ratio : 16:9
Frame rate : 25.000 fps
Standard : PAL
Compression mode : Lossy
Audio
ID : 128 (0x80)
Format : AC-3
Format/Info : Audio Coding 3
Duration : 1mn 59s
Channel(s) : 2 channels
Sampling rate : 48.0 KHz
Compression mode : Lossy
Language : Arabic
Text #1
ID : 32 (0x20)
Format : RLE
Format/Info : Run-length encoding
Bit depth : 2 bits
Text #2
ID : 33 (0x21)
Format : RLE
Format/Info : Run-length encoding
Bit depth : 2 bits
Language : English
Menu
Duration : 1mn 59s
00:00:00.000 : Chapter 1
00:01:59.400 : Chapter 2
List (Audio) : 0
List (Subtitles 4/3) : 0 / 0
List (Subtitles Wide) : 0 / 1
List (Subtitles Letterbox) : 0 / 1
List (Subtitles Pan&Scan) : 0 / 0
General
Complete name : D:\Мои релизы\Ma salama Jamil [DVD9]\VIDEO_TS\VTS_09_0.VOB
Format : MPEG-PS
File size : 152 KiB
Duration : 520ms
Overall bit rate : 2 395 Kbps
Video
ID : 224 (0xE0)
Format : MPEG Video
Format version : Version 2
Format profile : Main@Main
Format settings, BVOP : Yes
Format settings, Matrix : Default
Duration : 520ms
Bit rate mode : Constant
Bit rate : 2 000 Kbps
Width : 720 pixels
Height : 576 pixels
Display aspect ratio : 4:3
Frame rate : 25.000 fps
Standard : PAL
Color space : YUV
Chroma subsampling : 4:2:0
Bit depth : 8 bits
Scan type : Interlaced
Scan order : Top Field First
Compression mode : Lossy
Bits/(Pixel*Frame) : 0.193
Stream size : 127 KiB (84%)
Menu
General
Complete name : D:\Мои релизы\Ma salama Jamil [DVD9]\VIDEO_TS\VTS_09_1.VOB
Format : MPEG-PS
File size : 75.5 MiB
Duration : 1mn 59s
Overall bit rate : 5 304 Kbps
Video
ID : 224 (0xE0)
Format : MPEG Video
Format version : Version 2
Format profile : Main@Main
Format settings, BVOP : Yes
Format settings, Matrix : Default
Format settings, GOP : M=3, N=13
Duration : 1mn 59s
Bit rate mode : Variable
Bit rate : 5 007 Kbps
Nominal bit rate : 8 000 Kbps
Width : 720 pixels
Height : 576 pixels
Display aspect ratio : 2.35:1
Frame rate : 25.000 fps
Standard : PAL
Color space : YUV
Chroma subsampling : 4:2:0
Bit depth : 8 bits
Scan type : Interlaced
Scan order : Top Field First
Compression mode : Lossy
Bits/(Pixel*Frame) : 0.483
Stream size : 71.3 MiB (94%)
Audio
ID : 128 (0x80)
Format : AC-3
Format/Info : Audio Coding 3
Mode extension : CM (complete main)
Duration : 1mn 59s
Bit rate mode : Constant
Bit rate : 192 Kbps
Channel(s) : 2 channels
Channel positions : Front: L R
Sampling rate : 48.0 KHz
Bit depth : 16 bits
Compression mode : Lossy
Stream size : 2.73 MiB (4%)
Text
ID : 32 (0x20)
Format : RLE
Format/Info : Run-length encoding
Menu
General
Complete name : D:\Мои релизы\Ma salama Jamil [DVD9]\VIDEO_TS\VTS_10_0.BUP
Format : DVD Video
Format profile : Program
File size : 18.0 KiB
Duration : 1mn 10s
Overall bit rate : 2 104 bps
Video
ID : 224 (0xE0)
Format : MPEG Video
Format version : Version 2
Duration : 1mn 10s
Bit rate mode : Variable
Width : 720 pixels
Height : 576 pixels
Display aspect ratio : 16:9
Frame rate : 25.000 fps
Standard : PAL
Compression mode : Lossy
Audio
ID : 128 (0x80)
Format : AC-3
Format/Info : Audio Coding 3
Duration : 1mn 10s
Channel(s) : 2 channels
Sampling rate : 48.0 KHz
Compression mode : Lossy
Language : Arabic
Menu
Duration : 1mn 10s
00:00:00.000 : Chapter 1
00:01:09.600 : Chapter 2
List (Audio) : 0
General
Complete name : D:\Мои релизы\Ma salama Jamil [DVD9]\VIDEO_TS\VTS_10_0.IFO
Format : DVD Video
Format profile : Program
File size : 18.0 KiB
Duration : 1mn 10s
Overall bit rate : 2 104 bps
Video
ID : 224 (0xE0)
Format : MPEG Video
Format version : Version 2
Duration : 1mn 10s
Bit rate mode : Variable
Width : 720 pixels
Height : 576 pixels
Display aspect ratio : 16:9
Frame rate : 25.000 fps
Standard : PAL
Compression mode : Lossy
Audio
ID : 128 (0x80)
Format : AC-3
Format/Info : Audio Coding 3
Duration : 1mn 10s
Channel(s) : 2 channels
Sampling rate : 48.0 KHz
Compression mode : Lossy
Language : Arabic
Menu
Duration : 1mn 10s
00:00:00.000 : Chapter 1
00:01:09.600 : Chapter 2
List (Audio) : 0
General
Complete name : D:\Мои релизы\Ma salama Jamil [DVD9]\VIDEO_TS\VTS_10_0.VOB
Format : MPEG-PS
File size : 152 KiB
Duration : 520ms
Overall bit rate : 2 395 Kbps
Video
ID : 224 (0xE0)
Format : MPEG Video
Format version : Version 2
Format profile : Main@Main
Format settings, BVOP : Yes
Format settings, Matrix : Default
Duration : 520ms
Bit rate mode : Constant
Bit rate : 2 000 Kbps
Width : 720 pixels
Height : 576 pixels
Display aspect ratio : 4:3
Frame rate : 25.000 fps
Standard : PAL
Color space : YUV
Chroma subsampling : 4:2:0
Bit depth : 8 bits
Scan type : Interlaced
Scan order : Top Field First
Compression mode : Lossy
Bits/(Pixel*Frame) : 0.193
Stream size : 127 KiB (84%)
Menu
General
Complete name : D:\Мои релизы\Ma salama Jamil [DVD9]\VIDEO_TS\VTS_10_1.VOB
Format : MPEG-PS
File size : 26.1 MiB
Duration : 1mn 9s
Overall bit rate : 3 143 Kbps
Video
ID : 224 (0xE0)
Format : MPEG Video
Format version : Version 2
Format profile : Main@Main
Format settings, BVOP : Yes
Format settings, Matrix : Default
Format settings, GOP : M=3, N=12
Duration : 1mn 9s
Bit rate mode : Variable
Bit rate : 2 697 Kbps
Nominal bit rate : 7 000 Kbps
Width : 720 pixels
Height : 576 pixels
Display aspect ratio : 16:9
Frame rate : 25.000 fps
Standard : PAL
Color space : YUV
Chroma subsampling : 4:2:0
Bit depth : 8 bits
Scan type : Interlaced
Scan order : Top Field First
Compression mode : Lossy
Bits/(Pixel*Frame) : 0.260
Stream size : 22.4 MiB (86%)
Audio
ID : 128 (0x80)
Format : AC-3
Format/Info : Audio Coding 3
Mode extension : CM (complete main)
Duration : 1mn 9s
Bit rate mode : Constant
Bit rate : 384 Kbps
Channel(s) : 2 channels
Channel positions : Front: L R
Sampling rate : 48.0 KHz
Bit depth : 16 bits
Compression mode : Lossy
Stream size : 3.19 MiB (12%)
Menu
General
Complete name : D:\Мои релизы\Ma salama Jamil [DVD9]\VIDEO_TS\VTS_11_0.BUP
Format : DVD Video
Format profile : Program
File size : 20.0 KiB
Duration : 4mn 18s
Overall bit rate : 633 bps
Video
ID : 224 (0xE0)
Format : MPEG Video
Format version : Version 2
Duration : 4mn 18s
Bit rate mode : Variable
Width : 720 pixels
Height : 576 pixels
Display aspect ratio : 16:9
Frame rate : 25.000 fps
Standard : PAL
Compression mode : Lossy
Audio
ID : 128 (0x80)
Format : AC-3
Format/Info : Audio Coding 3
Duration : 4mn 18s
Channel(s) : 2 channels
Sampling rate : 48.0 KHz
Compression mode : Lossy
Language : Arabic
Menu
Duration : 4mn 18s
00:00:00.000 : Chapter 1
00:04:18.240 : Chapter 2
List (Audio) : 0
General
Complete name : D:\Мои релизы\Ma salama Jamil [DVD9]\VIDEO_TS\VTS_11_0.IFO
Format : DVD Video
Format profile : Program
File size : 20.0 KiB
Duration : 4mn 18s
Overall bit rate : 633 bps
Video
ID : 224 (0xE0)
Format : MPEG Video
Format version : Version 2
Duration : 4mn 18s
Bit rate mode : Variable
Width : 720 pixels
Height : 576 pixels
Display aspect ratio : 16:9
Frame rate : 25.000 fps
Standard : PAL
Compression mode : Lossy
Audio
ID : 128 (0x80)
Format : AC-3
Format/Info : Audio Coding 3
Duration : 4mn 18s
Channel(s) : 2 channels
Sampling rate : 48.0 KHz
Compression mode : Lossy
Language : Arabic
Menu
Duration : 4mn 18s
00:00:00.000 : Chapter 1
00:04:18.240 : Chapter 2
List (Audio) : 0
General
Complete name : D:\Мои релизы\Ma salama Jamil [DVD9]\VIDEO_TS\VTS_11_0.VOB
Format : MPEG-PS
File size : 152 KiB
Duration : 520ms
Overall bit rate : 2 395 Kbps
Video
ID : 224 (0xE0)
Format : MPEG Video
Format version : Version 2
Format profile : Main@Main
Format settings, BVOP : Yes
Format settings, Matrix : Default
Duration : 520ms
Bit rate mode : Constant
Bit rate : 2 000 Kbps
Width : 720 pixels
Height : 576 pixels
Display aspect ratio : 4:3
Frame rate : 25.000 fps
Standard : PAL
Color space : YUV
Chroma subsampling : 4:2:0
Bit depth : 8 bits
Scan type : Interlaced
Scan order : Top Field First
Compression mode : Lossy
Bits/(Pixel*Frame) : 0.193
Stream size : 127 KiB (84%)
Menu
General
Complete name : D:\Мои релизы\Ma salama Jamil [DVD9]\VIDEO_TS\VTS_11_1.VOB
Format : MPEG-PS
File size : 202 MiB
Duration : 4mn 18s
Overall bit rate : 6 575 Kbps
Video
ID : 224 (0xE0)
Format : MPEG Video
Format version : Version 2
Format profile : Main@Main
Format settings, BVOP : Yes
Format settings, Matrix : Default
Format settings, GOP : M=3, N=12
Duration : 4mn 18s
Bit rate mode : Variable
Bit rate : 6 060 Kbps
Nominal bit rate : 7 000 Kbps
Width : 720 pixels
Height : 576 pixels
Display aspect ratio : 16:9
Frame rate : 25.000 fps
Standard : PAL
Color space : YUV
Chroma subsampling : 4:2:0
Bit depth : 8 bits
Scan type : Interlaced
Scan order : Top Field First
Compression mode : Lossy
Bits/(Pixel*Frame) : 0.584
Stream size : 187 MiB (92%)
Audio
ID : 128 (0x80)
Format : AC-3
Format/Info : Audio Coding 3
Mode extension : CM (complete main)
Duration : 4mn 18s
Bit rate mode : Constant
Bit rate : 384 Kbps
Channel(s) : 2 channels
Channel positions : Front: L R
Sampling rate : 48.0 KHz
Bit depth : 16 bits
Compression mode : Lossy
Stream size : 11.8 MiB (6%)
Menu
General
Complete name : D:\Мои релизы\Ma salama Jamil [DVD9]\VIDEO_TS\VTS_12_0.BUP
Format : DVD Video
Format profile : Program
File size : 18.0 KiB
Duration : 2mn 0s
Overall bit rate : 1 219 bps
Video
ID : 224 (0xE0)
Format : MPEG Video
Format version : Version 2
Duration : 2mn 0s
Bit rate mode : Variable
Width : 720 pixels
Height : 576 pixels
Display aspect ratio : 16:9
Frame rate : 25.000 fps
Standard : PAL
Compression mode : Lossy
Audio
ID : 128 (0x80)
Format : AC-3
Format/Info : Audio Coding 3
Duration : 2mn 0s
Channel(s) : 2 channels
Sampling rate : 48.0 KHz
Compression mode : Lossy
Language : Arabic
Menu
Duration : 2mn 0s
00:00:00.000 : Chapter 1
00:02:00.480 : Chapter 2
List (Audio) : 0
General
Complete name : D:\Мои релизы\Ma salama Jamil [DVD9]\VIDEO_TS\VTS_12_0.IFO
Format : DVD Video
Format profile : Program
File size : 18.0 KiB
Duration : 2mn 0s
Overall bit rate : 1 219 bps
Video
ID : 224 (0xE0)
Format : MPEG Video
Format version : Version 2
Duration : 2mn 0s
Bit rate mode : Variable
Width : 720 pixels
Height : 576 pixels
Display aspect ratio : 16:9
Frame rate : 25.000 fps
Standard : PAL
Compression mode : Lossy
Audio
ID : 128 (0x80)
Format : AC-3
Format/Info : Audio Coding 3
Duration : 2mn 0s
Channel(s) : 2 channels
Sampling rate : 48.0 KHz
Compression mode : Lossy
Language : Arabic
Menu
Duration : 2mn 0s
00:00:00.000 : Chapter 1
00:02:00.480 : Chapter 2
List (Audio) : 0
General
Complete name : D:\Мои релизы\Ma salama Jamil [DVD9]\VIDEO_TS\VTS_12_0.VOB
Format : MPEG-PS
File size : 152 KiB
Duration : 520ms
Overall bit rate : 2 395 Kbps
Video
ID : 224 (0xE0)
Format : MPEG Video
Format version : Version 2
Format profile : Main@Main
Format settings, BVOP : Yes
Format settings, Matrix : Default
Duration : 520ms
Bit rate mode : Constant
Bit rate : 2 000 Kbps
Width : 720 pixels
Height : 576 pixels
Display aspect ratio : 4:3
Frame rate : 25.000 fps
Standard : PAL
Color space : YUV
Chroma subsampling : 4:2:0
Bit depth : 8 bits
Scan type : Interlaced
Scan order : Top Field First
Compression mode : Lossy
Bits/(Pixel*Frame) : 0.193
Stream size : 127 KiB (84%)
Menu
General
Complete name : D:\Мои релизы\Ma salama Jamil [DVD9]\VIDEO_TS\VTS_12_1.VOB
Format : MPEG-PS
File size : 95.5 MiB
Duration : 2mn 0s
Overall bit rate : 6 641 Kbps
Video
ID : 224 (0xE0)
Format : MPEG Video
Format version : Version 2
Format profile : Main@Main
Format settings, BVOP : Yes
Format settings, Matrix : Default
Format settings, GOP : M=3, N=12
Duration : 2mn 0s
Bit rate mode : Variable
Bit rate : 6 125 Kbps
Nominal bit rate : 7 000 Kbps
Width : 720 pixels
Height : 576 pixels
Display aspect ratio : 16:9
Frame rate : 25.000 fps
Standard : PAL
Color space : YUV
Chroma subsampling : 4:2:0
Bit depth : 8 bits
Scan type : Interlaced
Scan order : Top Field First
Compression mode : Lossy
Bits/(Pixel*Frame) : 0.591
Stream size : 88.0 MiB (92%)
Audio
ID : 128 (0x80)
Format : AC-3
Format/Info : Audio Coding 3
Mode extension : CM (complete main)
Duration : 2mn 0s
Bit rate mode : Constant
Bit rate : 384 Kbps
Channel(s) : 2 channels
Channel positions : Front: L R
Sampling rate : 48.0 KHz
Bit depth : 16 bits
Compression mode : Lossy
Stream size : 5.52 MiB (6%)
Menu
General
Complete name : D:\Мои релизы\Ma salama Jamil [DVD9]\VIDEO_TS\VTS_13_0.BUP
Format : DVD Video
Format profile : Program
File size : 18.0 KiB
Duration : 3mn 24s
Overall bit rate : 722 bps
Video
ID : 224 (0xE0)
Format : MPEG Video
Format version : Version 2
Duration : 3mn 24s
Bit rate mode : Variable
Width : 720 pixels
Height : 576 pixels
Display aspect ratio : 16:9
Frame rate : 25.000 fps
Standard : PAL
Compression mode : Lossy
Audio
ID : 128 (0x80)
Format : AC-3
Format/Info : Audio Coding 3
Duration : 3mn 24s
Channel(s) : 2 channels
Sampling rate : 48.0 KHz
Compression mode : Lossy
Language : Arabic
Menu
Duration : 3mn 24s
00:00:00.000 : Chapter 1
00:03:23.720 : Chapter 2
List (Audio) : 0
General
Complete name : D:\Мои релизы\Ma salama Jamil [DVD9]\VIDEO_TS\VTS_13_0.IFO
Format : DVD Video
Format profile : Program
File size : 18.0 KiB
Duration : 3mn 24s
Overall bit rate : 722 bps
Video
ID : 224 (0xE0)
Format : MPEG Video
Format version : Version 2
Duration : 3mn 24s
Bit rate mode : Variable
Width : 720 pixels
Height : 576 pixels
Display aspect ratio : 16:9
Frame rate : 25.000 fps
Standard : PAL
Compression mode : Lossy
Audio
ID : 128 (0x80)
Format : AC-3
Format/Info : Audio Coding 3
Duration : 3mn 24s
Channel(s) : 2 channels
Sampling rate : 48.0 KHz
Compression mode : Lossy
Language : Arabic
Menu
Duration : 3mn 24s
00:00:00.000 : Chapter 1
00:03:23.720 : Chapter 2
List (Audio) : 0
General
Complete name : D:\Мои релизы\Ma salama Jamil [DVD9]\VIDEO_TS\VTS_13_0.VOB
Format : MPEG-PS
File size : 152 KiB
Duration : 520ms
Overall bit rate : 2 395 Kbps
Video
ID : 224 (0xE0)
Format : MPEG Video
Format version : Version 2
Format profile : Main@Main
Format settings, BVOP : Yes
Format settings, Matrix : Default
Duration : 520ms
Bit rate mode : Constant
Bit rate : 2 000 Kbps
Width : 720 pixels
Height : 576 pixels
Display aspect ratio : 4:3
Frame rate : 25.000 fps
Standard : PAL
Color space : YUV
Chroma subsampling : 4:2:0
Bit depth : 8 bits
Scan type : Interlaced
Scan order : Top Field First
Compression mode : Lossy
Bits/(Pixel*Frame) : 0.193
Stream size : 127 KiB (84%)
Menu
General
Complete name : D:\Мои релизы\Ma salama Jamil [DVD9]\VIDEO_TS\VTS_13_1.VOB
Format : MPEG-PS
File size : 129 MiB
Duration : 3mn 23s
Overall bit rate : 5 297 Kbps
Video
ID : 224 (0xE0)
Format : MPEG Video
Format version : Version 2
Format profile : Main@Main
Format settings, BVOP : Yes
Format settings, Matrix : Default
Format settings, GOP : M=3, N=13
Duration : 3mn 23s
Bit rate mode : Variable
Bit rate : 5 000 Kbps
Nominal bit rate : 8 000 Kbps
Width : 720 pixels
Height : 576 pixels
Display aspect ratio : 2.35:1
Frame rate : 25.000 fps
Standard : PAL
Color space : YUV
Chroma subsampling : 4:2:0
Bit depth : 8 bits
Scan type : Interlaced
Scan order : Top Field First
Compression mode : Lossy
Bits/(Pixel*Frame) : 0.482
Stream size : 121 MiB (94%)
Audio
ID : 128 (0x80)
Format : AC-3
Format/Info : Audio Coding 3
Mode extension : CM (complete main)
Duration : 3mn 23s
Bit rate mode : Constant
Bit rate : 192 Kbps
Channel(s) : 2 channels
Channel positions : Front: L R
Sampling rate : 48.0 KHz
Bit depth : 16 bits
Compression mode : Lossy
Stream size : 4.66 MiB (4%)
Menu
General
Complete name : D:\Мои релизы\Ma salama Jamil [DVD9]\VIDEO_TS\VTS_14_0.BUP
Format : DVD Video
Format profile : Program
File size : 18.0 KiB
Duration : 2mn 48s
Overall bit rate : 875 bps
Video
ID : 224 (0xE0)
Format : MPEG Video
Format version : Version 2
Duration : 2mn 48s
Bit rate mode : Variable
Width : 720 pixels
Height : 576 pixels
Display aspect ratio : 16:9
Frame rate : 25.000 fps
Standard : PAL
Compression mode : Lossy
Audio
ID : 128 (0x80)
Format : AC-3
Format/Info : Audio Coding 3
Duration : 2mn 48s
Channel(s) : 2 channels
Sampling rate : 48.0 KHz
Compression mode : Lossy
Language : Arabic
Menu
Duration : 2mn 48s
00:00:00.000 : Chapter 1
00:02:48.000 : Chapter 2
List (Audio) : 0
General
Complete name : D:\Мои релизы\Ma salama Jamil [DVD9]\VIDEO_TS\VTS_14_0.IFO
Format : DVD Video
Format profile : Program
File size : 18.0 KiB
Duration : 2mn 48s
Overall bit rate : 875 bps
Video
ID : 224 (0xE0)
Format : MPEG Video
Format version : Version 2
Duration : 2mn 48s
Bit rate mode : Variable
Width : 720 pixels
Height : 576 pixels
Display aspect ratio : 16:9
Frame rate : 25.000 fps
Standard : PAL
Compression mode : Lossy
Audio
ID : 128 (0x80)
Format : AC-3
Format/Info : Audio Coding 3
Duration : 2mn 48s
Channel(s) : 2 channels
Sampling rate : 48.0 KHz
Compression mode : Lossy
Language : Arabic
Menu
Duration : 2mn 48s
00:00:00.000 : Chapter 1
00:02:48.000 : Chapter 2
List (Audio) : 0
General
Complete name : D:\Мои релизы\Ma salama Jamil [DVD9]\VIDEO_TS\VTS_14_0.VOB
Format : MPEG-PS
File size : 152 KiB
Duration : 520ms
Overall bit rate : 2 395 Kbps
Video
ID : 224 (0xE0)
Format : MPEG Video
Format version : Version 2
Format profile : Main@Main
Format settings, BVOP : Yes
Format settings, Matrix : Default
Duration : 520ms
Bit rate mode : Constant
Bit rate : 2 000 Kbps
Width : 720 pixels
Height : 576 pixels
Display aspect ratio : 4:3
Frame rate : 25.000 fps
Standard : PAL
Color space : YUV
Chroma subsampling : 4:2:0
Bit depth : 8 bits
Scan type : Interlaced
Scan order : Top Field First
Compression mode : Lossy
Bits/(Pixel*Frame) : 0.193
Stream size : 127 KiB (84%)
Menu
General
Complete name : D:\Мои релизы\Ma salama Jamil [DVD9]\VIDEO_TS\VTS_14_1.VOB
Format : MPEG-PS
File size : 167 MiB
Duration : 2mn 48s
Overall bit rate : 8 334 Kbps
Video
ID : 224 (0xE0)
Format : MPEG Video
Format version : Version 2
Format profile : Main@Main
Format settings, BVOP : Yes
Format settings, Matrix : Default
Format settings, GOP : M=3, N=13
Duration : 2mn 48s
Bit rate mode : Constant
Bit rate : 8 000 Kbps
Width : 720 pixels
Height : 576 pixels
Display aspect ratio : 2.35:1
Frame rate : 25.000 fps
Standard : PAL
Color space : YUV
Chroma subsampling : 4:2:0
Bit depth : 8 bits
Scan type : Interlaced
Scan order : Top Field First
Compression mode : Lossy
Bits/(Pixel*Frame) : 0.772
Stream size : 160 MiB (96%)
Audio
ID : 128 (0x80)
Format : AC-3
Format/Info : Audio Coding 3
Mode extension : CM (complete main)
Duration : 2mn 48s
Bit rate mode : Constant
Bit rate : 192 Kbps
Channel(s) : 2 channels
Channel positions : Front: L R
Sampling rate : 48.0 KHz
Bit depth : 16 bits
Compression mode : Lossy
Stream size : 3.85 MiB (2%)
Menu

Скриншоты меню

Скриншоты

Скриншоты доп. материалов

[Profile]  [PM] 
Display posts:    
Reply to topic

Current time is: 12-Apr 06:19

All times are UTC + 2



You cannot post new topics in this forum
You cannot reply to topics in this forum
You cannot edit your posts in this forum
You cannot delete your posts in this forum
You cannot vote in polls in this forum
You cannot attach files in this forum
You cannot download files in this forum