Непримиримые / Quelqu\'un de bien (Патрик Тимзи (Тимсит) / Patrick Timsit) [2002, Франция, комедия, DVD5 (Сжатый)] MVO + Sub Rus + Original Fre

Reply to topic
 
Author
Message

Faust ®

Gender: Unknown

Longevity: 9 years 6 months

Posts: 14955

Reputation: 0 [+] [-]

Faust · Post 15-Nov-2014 01:25

[Quote] 

Непримиримые / Quelqu'un de bien
Страна: Франция
Студия: Les Films Alain Sarde, TF1 Films Production, Tentative d'évasion
Жанр: комедия
Год выпуска: 2002
Продолжительность: 01:35:48
Перевод: Профессиональный (многоголосый закадровый) «Екатеринбург-Арт»
Cубтитры: русские
Оригинальная аудиодорожка: французский
Режиссер: Патрик Тимзи (Тимсит) / Patrick Timsit
В ролях: Хосе Гарсия, Патрик Тимзи, Марианн Деникур, Элиз Тьельруа, Наташа Линдингер, Жерар Ринальди, Гзавье Де Гийбон, Жорж Стаке, Альбер Дельпи, Жан-Франсуа Ален, Альбер Дрэ, Оливье Ашар, Николя Пепе, Жан Дель, Пьер Манганелли
Описание: Мари готовится к свадьбе, а ее жених Пьер Патрик — к похоронам. Своим собственным, ведь Пьеру остается жить лишь четыре месяца, если ему не сделают пересадку печени. Подходящим донором может быть только один человек — его родной брат Поль. Действительно, почему бы одному брату не поделиться с другим своей печенью?
Но Пьер ненавидит Поля и за последние десять лет ни разу с ним не виделся. Они не сходятся ни в чем: ни в образе жизни, ни во вкусах и предпочтениях. Тем более, что десять лет назад Поль увел прямо перед свадьбой невесту брата. Но Мари твердо намерена выйти замуж за Пьера, и никто и ничто не сможет помешать ей в этом…
Бонусы: нет
Меню: нет

Сэмпл: http://multi-up.com/1013057
Тип релиза: DVD5 (Сжатый)
Контейнер: DVD-Video
Видео: PAL 16:9 (720x576(0.537)) MPEG Video, 25,000 кадр/сек, 5563 Кбит/сек
Аудио: Russian (Dolby AC3, 6ch) 384 Кбит/сек, 48,0 КГц
Аудио 2: Francais (Dolby AC3, 6ch) 384 Кбит/сек, 48,0 КГц
Формат субтитров: prerendered (DVD/IDX+SUB)

Доп. информация

Издание «Екатеринбург-Арт»
Лиензионный DVD9 был когда-то сжат программой DVD Shrink

DVDInfo

Title:
Size: 4.27 Gb ( 4 480 268 KBytes ) - DVD-5
Enabled regions: 1, 2, 3, 4, 5, 6, 7, 8
VTS_01 :
Play Length: 01:35:48
Video: PAL 16:9 (720x576) VBR, Auto Letterboxed
Audio:
Russian (Dolby AC3, 6 ch)
Francais (Dolby AC3, 6 ch)
Subtitles:
Russian
Menu Video:
PAL 4:3 (720x576) VBR
Auto Pan&Scan, Auto Letterboxed
Menu Language Unit :
Chapter (PTT) Menu

MediaInfo

General
Complete name : D:\news\Непримиримые\VIDEO_TS\VTS_01_1.VOB
Format : MPEG-PS
File size : 1 024 MiB
Duration : 22mn 9s
Overall bit rate : 6 460 Kbps
Video
ID : 224 (0xE0)
Format : MPEG Video
Format version : Version 2
Format profile : Main@Main
Format settings, BVOP : Yes
Format settings, Matrix : Default
Format settings, GOP : M=3, N=13
Duration : 22mn 9s
Bit rate mode : Variable
Bit rate : 5 563 Kbps
Nominal bit rate : 7 500 Kbps
Width : 720 pixels
Height : 576 pixels
Display aspect ratio : 2.35:1
Frame rate : 25.000 fps
Standard : PAL
Color space : YUV
Chroma subsampling : 4:2:0
Bit depth : 8 bits
Scan type : Interlaced
Scan order : Top Field First
Bits/(Pixel*Frame) : 0.537
Stream size : 882 MiB (86%)
Audio #1
ID : 128 (0x80)
Format : AC-3
Format/Info : Audio Coding 3
Mode extension : CM (complete main)
Duration : 22mn 9s
Bit rate mode : Constant
Bit rate : 384 Kbps
Channel(s) : 6 channels
Channel positions : Front: L C R, Side: L R, LFE
Sampling rate : 48.0 KHz
Stream size : 60.9 MiB (6%)
Audio #2
ID : 129 (0x81)
Format : AC-3
Format/Info : Audio Coding 3
Mode extension : CM (complete main)
Duration : 22mn 9s
Bit rate mode : Constant
Bit rate : 384 Kbps
Channel(s) : 6 channels
Channel positions : Front: L C R, Side: L R, LFE
Sampling rate : 48.0 KHz
Stream size : 60.9 MiB (6%)
Text
ID : 32 (0x20)
Format : RLE
Format/Info : Run-length encoding
Menu

Постеры

[Profile]  [PM] 
Display posts:    
Reply to topic

Current time is: 14-Apr 00:44

All times are UTC + 2



You cannot post new topics in this forum
You cannot reply to topics in this forum
You cannot edit your posts in this forum
You cannot delete your posts in this forum
You cannot vote in polls in this forum
You cannot attach files in this forum
You cannot download files in this forum