Последнее искушение Христа / The Last Temptation of Christ (Мартин Скорсезе / Martin Scorsese) [1988, США, Канада, Драма, Философская притча, DVD9 (Custom)] DVO (НТВ) + Sub Eng + Original Eng / Criterion Collection#70

Reply to topic
 
Author
Message

Faust ®

Gender: Unknown

Longevity: 9 years 6 months

Posts: 14946

Reputation: 0 [+] [-]

Faust · Post 24-Nov-2014 01:20

[Quote] 

Последнее искушение Христа / The Last Temptation of Christ / Criterion Collection#70
Страна:США, Канада
Студия:Cineplex Odeon Films, Universal Pictures.
Жанр: Драма, Философская притча
Год выпуска: 1988
Продолжительность: 02:43:28
Производитель:The Criterion Collection #70
Перевод :Профессиональный (двухголосый закадровый)НТВ
Cубтитры:Английские
Оригинальная аудиодорожка:Английский
Премьера (мир):12.08.1988
Режиссер:Мартин Скорсезе / Martin ScorseseВ ролях:Уиллем Дефо — Иисус Христос
Харви Кейтель — Иуда Искариот
Барбара Херши — Мария Магдалина
Верна Блум — Мария, мать Иисуса
Дэвид Боуи — Понтий Пилат
Майкл Бин — апостол Иоанн
Стив Шилл — Центурион
Пол Греко — Зилот
Робертс Блоссом — пожилой мастер
Гэри Басараба — апостол Андрей
Ирвин Кершнер — Зеведей
Виктор Арго — апостол Пётр
Пол Херман — апостол Филипп
Джон Лури — апостол Иаков
Лео Бурместер — апостол Нафанаил
Пегги Гормлей — Марта, сестра Лазаря
Рэнди Дансон — Мария, сестра Лазаря
Роберт Спэффорд — человек на свадьбе
Томас Арана — Лазарь
Алан Розенберг — апостол Фома
Дел Рассел — меняла
Описание:История Сына человеческого увидена через цепь искушений, ловушек, развилок. Ее двигает экстатический страх, и смотришь его с тяжелым чувством, потому что это триллер веры. Скорсезе изображает последователей Иисуса совершенно земными. Они желали революции, а Он принял Распятие, пошел на крест и вверг их надежды на земное царство в прах, и уподобил их земное существование праху. Но последующая развилка невероятно мощна: Распятый на кресте освобожден от миссии, у него будет свадьба, дом, дети, дорога от объятий к объятиям, от сына к сыну, возделываемый сад.
Доп. информация:Исходник найден в сети.
Профессиональный (двухголосый закадровый) взятиз раздачи-benadam- http://torrentsland.com.ua/forum/viewtopic.php?t=4689878.Из за превышения битрейта звуковая дорожка с комментариями удалена.
Реавторинг Нордер.Огромное Спасибо Всем, без чьей помощи этот релиз не состоялся бы!Сценарий:Пол Шредер, Никос КазандзакисПродюсер:Барбара Де Фина, Гарри Дж. УфлэндОператор:Михаэль Балльхаус
Композитор:Питер Гэбриел Художник:Джон Бирд, Эндрю Сандерс, Жан-Пьер Делифер
Художник:Джон Берд, Эндрю Сендерс, Жан-Пьер Делифер
Монтаж:Тельма Шунмейкер

Знаете ли вы, что...

Награды и номинации


Рецензия

Софт

PGCDemux (извлечение).
BeSweet, Sony Vegas 9 (звук).
MuxMan (сборка). DvdReMakePro (финал).

Бонусы:(Без перевода)

* New widescreen digital transfer, approved by the filmmakers and enhanced for widescreen televisions
* New Dolby Digital 5.1 channel soundtrack by original supervising sound editor Skip Lievsay
* An extensive collection of research materials, production stills, and costume designs
* Location production footage, shot by Scorsese
* Video interview with composer Peter Gabriel, plus a stills gallery of the instruments used in the film score
* English subtitles for the deaf and hearing impaired
* Optimal image quality: RSDL dual-layer edition
Меню:Английский, анимированное, озвученное.Сэмпл :http://sendfile.su/1051508
Тип релиза:DVD9 (Custom)
Контейнер:DVD-Video
Видео:NTSC 16:9 (720x480) VBR, Auto Letterboxed, 5145 Кбит/сек, 29,970 кадров/сек
Аудио 1:Русский:AC3, 2 ch, 48.0 KHz, 192 Кбит/сек / НТВ
Аудио 2:Английский:AC3, 6 ch, 48.0 KHz, 384 Кбит/сек / (Оригинал)
Формат субтитров:prerendered (DVD/IDX+SUB)

Dvd Info

Title: The Last Temptation of Christ DVD-9_Custom_Criterion_#70
Size: 7.46 Gb ( 7 819 982,00 KBytes ) - DVD-9
Enabled regions: 1, 2, 3, 4, 5, 6, 7, 8
VTS_01 :
Play Length: 02:43:28
Video: NTSC 16:9 (720x480) VBR, Auto Letterboxed
Audio:
Russian (Dolby AC3, 2 ch)
English (Dolby AC3, 6 ch)
Subtitles:
English
VTS_02 :
Play Length: 00:15:41+00:12:03
Video: NTSC 4:3 (720x480) VBR
Audio:
English (Dolby AC3, 2 ch)

MediaInfo

Общее
Полное имя : F:\The Last Temptation of Christ DVD-9_Custom_Criterion_#70\VIDEO_TS\VTS_01_1.VOB
Формат : MPEG-PS
Размер файла : 1024 Мбайт
Продолжительность : 24 м.
Режим общего битрейта : Переменный
Общий поток : 5838 Кбит/сек
Видео
Идентификатор : 224 (0xE0)
Формат : MPEG Video
Версия формата : Version 2
Профиль формата : Main@Main
Параметр BVOP формата : Да
Параметр матрицы формата : По умолчанию
Параметр GOP формата : Variable
Продолжительность : 24 м.
Вид битрейта : Переменный
Битрейт : 5145 Кбит/сек
Максимальный битрейт : 4900 Кбит/сек
Ширина : 720 пикселей
Высота : 480 пикселей
Соотношение сторон : 2,40:1
Частота кадров : 29,970 кадров/сек
Стандарт вещания : NTSC
Цветовое пространство : YUV
Субдискретизация насыщенности : 4:2:0
Битовая глубина : 8 бит
Тип развёртки : Чересстрочная
Порядок развёртки : Верхнее поле первое
Метод сжатия : С потерями
Бит/(Пиксели*Кадры) : 0.497
Временной код первого кадра : 00:00:00:00
Оригинал временного кода : Group of pictures header
Размер потока : 903 Мбайт (88%)
Основные цвета : BT.601 PAL
Характеристики трансфера : BT.470 System B, BT.470 System G
Коэффициенты матрицы : BT.601
Аудио #1
Идентификатор : 189 (0xBD)-128 (0x80)
Формат : AC-3
Формат/Информация : Audio Coding 3
Расширение режима : CM (complete main)
Параметр Endianness формата : Big
Режим смешивания : DVD-Video
Продолжительность : 24 м.
Вид битрейта : Постоянный
Битрейт : 192 Кбит/сек
Каналы : 2 канала
Расположение каналов : Front: L R
Частота : 48,0 КГц
Битовая глубина : 16 бит
Метод сжатия : С потерями
Размер потока : 33,7 Мбайт (3%)
Аудио #2
Идентификатор : 189 (0xBD)-129 (0x81)
Формат : AC-3
Формат/Информация : Audio Coding 3
Расширение режима : CM (complete main)
Параметр Endianness формата : Big
Режим смешивания : DVD-Video
Продолжительность : 24 м.
Вид битрейта : Постоянный
Битрейт : 384 Кбит/сек
Каналы : 6 каналов
Расположение каналов : Front: L C R, Side: L R, LFE
Частота : 48,0 КГц
Битовая глубина : 16 бит
Метод сжатия : С потерями
Размер потока : 67,4 Мбайт (7%)
Текст
Идентификатор : 189 (0xBD)-32 (0x20)
Формат : RLE
Формат/Информация : Run-length encoding
Режим смешивания : DVD-Video

Скриншоты меню

Скриншоты

Полиграфия+Буклет

Буклет http://multi-up.com/1012741
Релиз: Уважаемые пользователи!Найдите пару минут поблагодарить релизера и высказаться в топике раздачи.Ваше мнение - бальзам для раздающего и пища для ума остальным пользователям.Мои раздачи
[Profile]  [PM] 
Display posts:    
Reply to topic

Current time is: 12-Apr 04:42

All times are UTC + 2



You cannot post new topics in this forum
You cannot reply to topics in this forum
You cannot edit your posts in this forum
You cannot delete your posts in this forum
You cannot vote in polls in this forum
You cannot attach files in this forum
You cannot download files in this forum