Трусы / Cobardes / Cowards (Хосе Корбачо / José Corbacho, Хуан Круз / Juan Cruz) [2008, Испания, Драма, семейный, DVD9 (custom)] VO + Original (Sp) + Sub (Rus, Eng, Sp)

Reply to topic
 
Author
Message

Faust ®

Gender: Unknown

Longevity: 9 years 6 months

Posts: 14955

Reputation: 0 [+] [-]

Faust · Post 29-Nov-2014 02:10

[Quote] 

Трусы / Cobardes / Cowards- Страна: Испания
Студия: El Terrat, Ensueño Films, Filmax
Жанр: Драма, семейный
Год выпуска: 2008
Продолжительность: 01:25:22-Перевод: Одноголосый закадровый
Cубтитры: русские, английские, испанские
Оригинальная аудиодорожка: испанский-Режиссер: Хосе Корбачо / José Corbacho, Хуан Круз / Juan Cruz-В ролях: Эдуардо Гаре, Эдуардо Эспинилья, Эльвира Мингес, Антонио де ла Торре, Льюис Омар, Пас Падилья, Фрэнк Круделе, Бланка Апиланес, Ариадна Гайя, Хавьер Бодало-Описание: 14-летний Габриэль ненавидит школу. Ведь каждый день, проведенный им там, подобен череде истязаний, где одноклассник Габриэля — Гильермо вместе с группой ребят постоянно оскорбляет парня перед сверстниками, задирая и избивая его. И даже распознав что-то неладное учителя и взрослые оценивают ситуацию совсем иначе, лишь усугубляя положение подростка. Понимая, что мир взрослых тоже находится во власти страха, подобного его собственному, Габриэль решает дать отпор обидчикам...-Доп. информация:
- испанскую звуковую дорожку (DTS) заменил на русскую (кнопка в Меню - "DTS");
- русские субтитры включаются с пульта плеера;
- за исходный DVD9 спасибо edus67
Бонусы: дополнительные материалы включают трейлер фильма, клип, анонсы фильмов - все на испанском языке
Меню: есть, язык испанский, анимированное, озвученное-Sample | IMDB | КиноПоиск-Тип релиза: DVD9 (Custom)
Контейнер: DVD-Video-Видео: PAL 16:9 (720x576) VBR Auto Letterboxed
Аудио 1: AC3, 3/2+LFE ch, 448Kbps, Delay -208 mSec [Original_Spanish]
Аудио 2: AC3, 2/0 ch, 192Kbps, Delay -176 mSec [Russian_VO]
Аудио 3: AC3, 3/2+LFE ch, 448Kbps, Delay -208 mSec [Catalan]
Аудио 4: AC3, 2/0 ch, 192Kbps, Delay -176 mSec [Director's comments]-Релиз группы: -

Используемое ПО

1. BeLight - mp3 - wav;
2. Adobe Audition - синхронизация;
3. Minnetonka Audio Software - wav - ac3;

4. PgcDemux - разборка оригинального DVD;
5. MuxMan - сборка DVD;
6. DVDReMake Pro - финальный проект.

DVDInfo

Title:
Size: 5.32 Gb ( 5 576 428 KBytes ) - DVD-9
Enabled regions: 1, 2, 3, 4, 5, 6, 7, 8
VTS_01 :
Play Length: 01:25:04+00:00:05+00:00:06+00:00:07
Video: PAL 16:9 (720x576) VBR, Auto Letterboxed
Audio:
Espanol (Dolby AC3, 6 ch)
Russian (Dolby AC3, 2 ch)
Catalan (Dolby AC3, 6 ch)
Espanol (Dolby AC3, 2 ch)
Subtitles:
English
Espanol
Russian
VTS_02 :
Play Length: 00:01:26+00:02:39
Video: PAL 4:3 (720x576) VBR
Audio:
Espanol (Dolby AC3, 2 ch)
VTS_03 :
Play Length: 00:01:51+00:00:44+00:02:15
Video: PAL 4:3 (720x576) VBR
Audio:
Espanol (Dolby AC3, 2 ch)
VTS_04 :
Play Length:
Video: PAL 4:3 (720x576) VBR
Audio:
Espanol (Dolby AC3, 2 ch)
VTS_05 :
Play Length:
Video: PAL 4:3 (720x576) VBR
Audio:
Espanol (Dolby AC3, 2 ch)
VTS_06 :
Play Length:
Video: PAL 16:9 (720x576) VBR, Auto Letterboxed
VTS_07 :
Play Length:
Video: PAL 16:9 (720x576) VBR, Auto Letterboxed
Audio:
Espanol (Dolby AC3, 6 ch)
Espanol (DTS, 6 ch)
Catalan (Dolby AC3, 6 ch)
Not specified (Dolby AC3, 2 ch)
Subtitles:
English
Not specified
VTS_08 :
Play Length:
Video: PAL 16:9 (720x576) VBR, Auto Letterboxed
VTS_09 :
Play Length:
Video: PAL 16:9 (720x576) VBR, Auto Letterboxed
VTS_10 :
Play Length:
Video: PAL 16:9 (720x576) VBR, Auto Letterboxed
Subtitles:
English
Not specified
VTS_11 :
Play Length:
Video: PAL 16:9 (720x576) VBR, Auto Letterboxed
VTS_12 :
Play Length:
Video: PAL 16:9 (720x576) VBR, Auto Letterboxed
Audio:
Espanol (Dolby AC3, 6 ch)
Espanol (DTS, 6 ch)
Catalan (Dolby AC3, 6 ch)
Not specified (Dolby AC3, 2 ch)
Subtitles:
English
Not specified
Menu Video:
PAL 16:9 (720x576) VBR
Auto Letterboxed
Menu Audio:
Not specified (Dolby AC3, 2 ch)
Menu Subtitles:
Not specified
Menu Espanol Language Unit :
Root Menu
Chapter (PTT) Menu

MediaInfo

General
Complete name : D:\Мои релизы\Cobardes [DVD9]\VIDEO_TS\VIDEO_TS.BUP
Format : DVD Video
Format profile : Menu
File size : 22.0 KiB
Video
ID : 224 (0xE0)
Format : MPEG Video
Format version : Version 2
Bit rate mode : Variable
Width : 720 pixels
Height : 576 pixels
Display aspect ratio : 16:9
Frame rate : 25.000 fps
Standard : PAL
Compression mode : Lossy
Audio
Format : AC-3
Format/Info : Audio Coding 3
Channel(s) : 2 channels
Sampling rate : 48.0 KHz
Compression mode : Lossy
Text
Format : RLE
Format/Info : Run-length encoding
Bit depth : 2 bits
General
Complete name : D:\Мои релизы\Cobardes [DVD9]\VIDEO_TS\VIDEO_TS.IFO
Format : DVD Video
Format profile : Menu
File size : 22.0 KiB
Video
ID : 224 (0xE0)
Format : MPEG Video
Format version : Version 2
Bit rate mode : Variable
Width : 720 pixels
Height : 576 pixels
Display aspect ratio : 16:9
Frame rate : 25.000 fps
Standard : PAL
Compression mode : Lossy
Audio
Format : AC-3
Format/Info : Audio Coding 3
Channel(s) : 2 channels
Sampling rate : 48.0 KHz
Compression mode : Lossy
Text
Format : RLE
Format/Info : Run-length encoding
Bit depth : 2 bits
General
Complete name : D:\Мои релизы\Cobardes [DVD9]\VIDEO_TS\VIDEO_TS.VOB
Format : MPEG-PS
File size : 48.9 MiB
Duration : 1mn 0s
Overall bit rate : 6 844 Kbps
Writing library : encoded by TMPGEnc 3.0 XPress Version. 3.1.5.82
Video
ID : 224 (0xE0)
Format : MPEG Video
Format version : Version 2
Format profile : Main@Main
Format settings, BVOP : Yes
Format settings, Matrix : Default
Format settings, GOP : M=3, N=12
Duration : 120ms
Bit rate mode : Constant
Bit rate : 6 500 Kbps
Width : 720 pixels
Height : 576 pixels
Display aspect ratio : 16:9
Frame rate : 25.000 fps
Standard : PAL
Color space : YUV
Chroma subsampling : 4:2:0
Bit depth : 8 bits
Scan type : Interlaced
Scan order : Top Field First
Compression mode : Lossy
Bits/(Pixel*Frame) : 0.627
Stream size : 95.4 KiB (0%)
Writing library : TMPGEnc 3.0 XPress Version. 3.1.5.82
Audio
ID : 128 (0x80)
Format : AC-3
Format/Info : Audio Coding 3
Mode extension : CM (complete main)
Duration : 1mn 0s
Bit rate mode : Constant
Bit rate : 192 Kbps
Channel(s) : 2 channels
Channel positions : Front: L R
Sampling rate : 48.0 KHz
Bit depth : 16 bits
Compression mode : Lossy
Stream size : 1.37 MiB (3%)
Text #1
ID : 32 (0x20)
Format : RLE
Format/Info : Run-length encoding
Text #2
ID : 33 (0x21)
Format : RLE
Format/Info : Run-length encoding
Menu
General
Complete name : D:\Мои релизы\Cobardes [DVD9]\VIDEO_TS\VTS_01_0.BUP
Format : DVD Video
Format profile : Program
File size : 68.0 KiB
Duration : 1h 25mn
Overall bit rate : 109 bps
Video
ID : 224 (0xE0)
Format : MPEG Video
Format version : Version 2
Duration : 1h 25mn
Bit rate mode : Variable
Width : 720 pixels
Height : 576 pixels
Display aspect ratio : 16:9
Frame rate : 25.000 fps
Standard : PAL
Compression mode : Lossy
Audio #1
ID : 128 (0x80)
Format : AC-3
Format/Info : Audio Coding 3
Duration : 1h 25mn
Channel(s) : 6 channels
Sampling rate : 48.0 KHz
Compression mode : Lossy
Language : Spanish
Audio #2
ID : 129 (0x81)
Format : AC-3
Format/Info : Audio Coding 3
Duration : 1h 25mn
Channel(s) : 2 channels
Sampling rate : 48.0 KHz
Compression mode : Lossy
Language : Russian
Audio #3
ID : 130 (0x82)
Format : AC-3
Format/Info : Audio Coding 3
Duration : 1h 25mn
Channel(s) : 6 channels
Sampling rate : 48.0 KHz
Compression mode : Lossy
Language : Catalan
Audio #4
ID : 131 (0x83)
Format : AC-3
Format/Info : Audio Coding 3
Duration : 1h 25mn
Channel(s) : 2 channels
Sampling rate : 48.0 KHz
Compression mode : Lossy
Language : Spanish
Text #1
ID : 32 (0x20)
Format : RLE
Format/Info : Run-length encoding
Bit depth : 2 bits
Language : English
Text #2
ID : 33 (0x21)
Format : RLE
Format/Info : Run-length encoding
Bit depth : 2 bits
Language : Spanish
Text #3
ID : 34 (0x22)
Format : RLE
Format/Info : Run-length encoding
Bit depth : 2 bits
Language : Russian
Menu #1
Duration : 1h 25mn
00:00:00.000 : Chapter 1
00:13:48.960 : Chapter 2
00:26:10.560 : Chapter 3
00:42:09.600 : Chapter 4
00:55:13.440 : Chapter 5
01:10:16.320 : Chapter 6
List (Audio) : 0 / 1 / 2 / 3
List (Subtitles 4/3) : 0 / 0 / 0
List (Subtitles Wide) : 0 / 1 / 2
List (Subtitles Letterbox) : 0 / 1 / 2
List (Subtitles Pan&Scan) : 0 / 0 / 0
Menu #2
Duration : 5s 760ms
00:00:00.000 : Chapter 1
00:00:01.440 : Chapter 2
00:00:01.920 : Chapter 3
00:00:02.400 : Chapter 4
00:00:02.880 : Chapter 5
00:00:03.360 : Chapter 6
List (Audio) : 0 / 1 / 2 / 3
List (Subtitles 4/3) : 0 / 0 / 0
List (Subtitles Wide) : 0 / 1 / 2
List (Subtitles Letterbox) : 0 / 1 / 2
List (Subtitles Pan&Scan) : 0 / 0 / 0
Menu #3
Duration : 6s 240ms
00:00:00.000 : Chapter 1
00:00:01.920 : Chapter 2
00:00:02.400 : Chapter 3
00:00:02.880 : Chapter 4
00:00:03.360 : Chapter 5
00:00:03.840 : Chapter 6
List (Audio) : 0 / 1 / 2 / 3
List (Subtitles 4/3) : 0 / 0 / 0
List (Subtitles Wide) : 0 / 1 / 2
List (Subtitles Letterbox) : 0 / 1 / 2
List (Subtitles Pan&Scan) : 0 / 0 / 0
Menu #4
Duration : 7s 200ms
00:00:00.000 : Chapter 1
00:00:00.960 : Chapter 2
00:00:01.440 : Chapter 3
00:00:01.920 : Chapter 4
00:00:02.400 : Chapter 5
00:00:02.880 : Chapter 6
List (Audio) : 0 / 1 / 2 / 3
List (Subtitles 4/3) : 0 / 0 / 0
List (Subtitles Wide) : 0 / 1 / 2
List (Subtitles Letterbox) : 0 / 1 / 2
List (Subtitles Pan&Scan) : 0 / 0 / 0
General
Complete name : D:\Мои релизы\Cobardes [DVD9]\VIDEO_TS\VTS_01_0.IFO
Format : DVD Video
Format profile : Program
File size : 68.0 KiB
Duration : 1h 25mn
Overall bit rate : 109 bps
Video
ID : 224 (0xE0)
Format : MPEG Video
Format version : Version 2
Duration : 1h 25mn
Bit rate mode : Variable
Width : 720 pixels
Height : 576 pixels
Display aspect ratio : 16:9
Frame rate : 25.000 fps
Standard : PAL
Compression mode : Lossy
Audio #1
ID : 128 (0x80)
Format : AC-3
Format/Info : Audio Coding 3
Duration : 1h 25mn
Channel(s) : 6 channels
Sampling rate : 48.0 KHz
Compression mode : Lossy
Language : Spanish
Audio #2
ID : 129 (0x81)
Format : AC-3
Format/Info : Audio Coding 3
Duration : 1h 25mn
Channel(s) : 2 channels
Sampling rate : 48.0 KHz
Compression mode : Lossy
Language : Russian
Audio #3
ID : 130 (0x82)
Format : AC-3
Format/Info : Audio Coding 3
Duration : 1h 25mn
Channel(s) : 6 channels
Sampling rate : 48.0 KHz
Compression mode : Lossy
Language : Catalan
Audio #4
ID : 131 (0x83)
Format : AC-3
Format/Info : Audio Coding 3
Duration : 1h 25mn
Channel(s) : 2 channels
Sampling rate : 48.0 KHz
Compression mode : Lossy
Language : Spanish
Text #1
ID : 32 (0x20)
Format : RLE
Format/Info : Run-length encoding
Bit depth : 2 bits
Language : English
Text #2
ID : 33 (0x21)
Format : RLE
Format/Info : Run-length encoding
Bit depth : 2 bits
Language : Spanish
Text #3
ID : 34 (0x22)
Format : RLE
Format/Info : Run-length encoding
Bit depth : 2 bits
Language : Russian
Menu #1
Duration : 1h 25mn
00:00:00.000 : Chapter 1
00:13:48.960 : Chapter 2
00:26:10.560 : Chapter 3
00:42:09.600 : Chapter 4
00:55:13.440 : Chapter 5
01:10:16.320 : Chapter 6
List (Audio) : 0 / 1 / 2 / 3
List (Subtitles 4/3) : 0 / 0 / 0
List (Subtitles Wide) : 0 / 1 / 2
List (Subtitles Letterbox) : 0 / 1 / 2
List (Subtitles Pan&Scan) : 0 / 0 / 0
Menu #2
Duration : 5s 760ms
00:00:00.000 : Chapter 1
00:00:01.440 : Chapter 2
00:00:01.920 : Chapter 3
00:00:02.400 : Chapter 4
00:00:02.880 : Chapter 5
00:00:03.360 : Chapter 6
List (Audio) : 0 / 1 / 2 / 3
List (Subtitles 4/3) : 0 / 0 / 0
List (Subtitles Wide) : 0 / 1 / 2
List (Subtitles Letterbox) : 0 / 1 / 2
List (Subtitles Pan&Scan) : 0 / 0 / 0
Menu #3
Duration : 6s 240ms
00:00:00.000 : Chapter 1
00:00:01.920 : Chapter 2
00:00:02.400 : Chapter 3
00:00:02.880 : Chapter 4
00:00:03.360 : Chapter 5
00:00:03.840 : Chapter 6
List (Audio) : 0 / 1 / 2 / 3
List (Subtitles 4/3) : 0 / 0 / 0
List (Subtitles Wide) : 0 / 1 / 2
List (Subtitles Letterbox) : 0 / 1 / 2
List (Subtitles Pan&Scan) : 0 / 0 / 0
Menu #4
Duration : 7s 200ms
00:00:00.000 : Chapter 1
00:00:00.960 : Chapter 2
00:00:01.440 : Chapter 3
00:00:01.920 : Chapter 4
00:00:02.400 : Chapter 5
00:00:02.880 : Chapter 6
List (Audio) : 0 / 1 / 2 / 3
List (Subtitles 4/3) : 0 / 0 / 0
List (Subtitles Wide) : 0 / 1 / 2
List (Subtitles Letterbox) : 0 / 1 / 2
List (Subtitles Pan&Scan) : 0 / 0 / 0
General
Complete name : D:\Мои релизы\Cobardes [DVD9]\VIDEO_TS\VTS_01_0.VOB
Format : MPEG-PS
File size : 32.7 MiB
Duration : 40s 0ms
Overall bit rate : 6 858 Kbps
Writing library : encoded by TMPGEnc 3.0 XPress Version. 3.1.5.82
Video
ID : 224 (0xE0)
Format : MPEG Video
Format version : Version 2
Format profile : Main@Main
Format settings, BVOP : Yes
Format settings, Matrix : Default
Duration : 40s 0ms
Bit rate mode : Constant
Bit rate : 6 529 Kbps
Width : 720 pixels
Height : 576 pixels
Display aspect ratio : 16:9
Frame rate : 25.000 fps
Standard : PAL
Color space : YUV
Chroma subsampling : 4:2:0
Bit depth : 8 bits
Compression mode : Lossy
Bits/(Pixel*Frame) : 0.630
Stream size : 31.1 MiB (95%)
Writing library : TMPGEnc 3.0 XPress Version. 3.1.5.82
Audio
ID : 128 (0x80)
Format : AC-3
Format/Info : Audio Coding 3
Mode extension : CM (complete main)
Duration : 40s 0ms
Bit rate mode : Constant
Bit rate : 192 Kbps
Channel(s) : 2 channels
Channel positions : Front: L R
Sampling rate : 48.0 KHz
Bit depth : 16 bits
Compression mode : Lossy
Stream size : 938 KiB (3%)
Text #1
ID : 32 (0x20)
Format : RLE
Format/Info : Run-length encoding
Text #2
ID : 33 (0x21)
Format : RLE
Format/Info : Run-length encoding
Menu
General
Complete name : D:\Мои релизы\Cobardes [DVD9]\VIDEO_TS\VTS_01_1.VOB
Format : MPEG-PS
File size : 1 024 MiB
Overall bit rate : 0
Video
ID : 224 (0xE0)
Format : MPEG Video
Format version : Version 2
Format profile : Main@Main
Format settings, BVOP : Yes
Format settings, Matrix : Default
Bit rate mode : Variable
Width : 720 pixels
Height : 576 pixels
Display aspect ratio : 16:9
Frame rate : 25.000 fps
Standard : PAL
Color space : YUV
Chroma subsampling : 4:2:0
Bit depth : 8 bits
Scan type : Interlaced
Scan order : Top Field First
Compression mode : Lossy
Audio #1
ID : 128 (0x80)
Format : AC-3
Format/Info : Audio Coding 3
Mode extension : CM (complete main)
Duration : -1h 7mn
Bit rate mode : Constant
Bit rate : 448 Kbps
Channel(s) : 6 channels
Channel positions : Front: L C R, Side: L R, LFE
Sampling rate : 48.0 KHz
Bit depth : 16 bits
Compression mode : Lossy
Video delay : -208ms
Stream size : 2.05 ?iB
Audio #2
ID : 129 (0x81)
Format : AC-3
Format/Info : Audio Coding 3
Mode extension : CM (complete main)
Duration : -1h 7mn
Bit rate mode : Constant
Bit rate : 192 Kbps
Channel(s) : 2 channels
Channel positions : Front: L R
Sampling rate : 48.0 KHz
Bit depth : 16 bits
Compression mode : Lossy
Video delay : -176ms
Stream size : 2.05 ?iB
Audio #3
ID : 130 (0x82)
Format : AC-3
Format/Info : Audio Coding 3
Mode extension : CM (complete main)
Duration : -1h 7mn
Bit rate mode : Constant
Bit rate : 448 Kbps
Channel(s) : 6 channels
Channel positions : Front: L C R, Side: L R, LFE
Sampling rate : 48.0 KHz
Bit depth : 16 bits
Compression mode : Lossy
Video delay : -208ms
Stream size : 2.05 ?iB
Audio #4
ID : 131 (0x83)
Format : AC-3
Format/Info : Audio Coding 3
Mode extension : CM (complete main)
Duration : -1h 7mn
Bit rate mode : Constant
Bit rate : 192 Kbps
Channel(s) : 2 channels
Channel positions : Front: L R
Sampling rate : 48.0 KHz
Bit depth : 16 bits
Compression mode : Lossy
Video delay : -176ms
Stream size : 2.05 ?iB
Menu
General
Complete name : D:\Мои релизы\Cobardes [DVD9]\VIDEO_TS\VTS_01_2.VOB
Format : MPEG-PS
File size : 1 024 MiB
Duration : 16mn 55s
Overall bit rate : 8 461 Kbps
Video
ID : 224 (0xE0)
Format : MPEG Video
Format version : Version 2
Format profile : Main@Main
Format settings, BVOP : Yes
Format settings, Matrix : Default
Format settings, GOP : M=3, N=12
Duration : 16mn 54s
Bit rate mode : Variable
Bit rate : 7 013 Kbps
Nominal bit rate : 7 800 Kbps
Width : 720 pixels
Height : 576 pixels
Display aspect ratio : 16:9
Frame rate : 25.000 fps
Standard : PAL
Color space : YUV
Chroma subsampling : 4:2:0
Bit depth : 8 bits
Scan type : Interlaced
Scan order : Top Field First
Compression mode : Lossy
Bits/(Pixel*Frame) : 0.676
Stream size : 848 MiB (83%)
Audio #1
ID : 128 (0x80)
Format : AC-3
Format/Info : Audio Coding 3
Mode extension : CM (complete main)
Duration : 16mn 55s
Bit rate mode : Constant
Bit rate : 448 Kbps
Channel(s) : 6 channels
Channel positions : Front: L C R, Side: L R, LFE
Sampling rate : 48.0 KHz
Bit depth : 16 bits
Compression mode : Lossy
Video delay : -688ms
Stream size : 54.2 MiB (5%)
Audio #2
ID : 129 (0x81)
Format : AC-3
Format/Info : Audio Coding 3
Mode extension : CM (complete main)
Duration : 16mn 55s
Bit rate mode : Constant
Bit rate : 192 Kbps
Channel(s) : 2 channels
Channel positions : Front: L R
Sampling rate : 48.0 KHz
Bit depth : 16 bits
Compression mode : Lossy
Video delay : -656ms
Stream size : 23.2 MiB (2%)
Audio #3
ID : 130 (0x82)
Format : AC-3
Format/Info : Audio Coding 3
Mode extension : CM (complete main)
Duration : 16mn 55s
Bit rate mode : Constant
Bit rate : 448 Kbps
Channel(s) : 6 channels
Channel positions : Front: L C R, Side: L R, LFE
Sampling rate : 48.0 KHz
Bit depth : 16 bits
Compression mode : Lossy
Video delay : -720ms
Stream size : 54.2 MiB (5%)
Audio #4
ID : 131 (0x83)
Format : AC-3
Format/Info : Audio Coding 3
Mode extension : CM (complete main)
Duration : 16mn 55s
Bit rate mode : Constant
Bit rate : 192 Kbps
Channel(s) : 2 channels
Channel positions : Front: L R
Sampling rate : 48.0 KHz
Bit depth : 16 bits
Compression mode : Lossy
Video delay : -656ms
Stream size : 23.2 MiB (2%)
Text #1
ID : 33 (0x21)
Format : RLE
Format/Info : Run-length encoding
Text #2
ID : 34 (0x22)
Format : RLE
Format/Info : Run-length encoding
Menu
General
Complete name : D:\Мои релизы\Cobardes [DVD9]\VIDEO_TS\VTS_01_3.VOB
Format : MPEG-PS
File size : 1 024 MiB
Duration : 16mn 54s
Overall bit rate : 8 463 Kbps
Video
ID : 224 (0xE0)
Format : MPEG Video
Format version : Version 2
Format profile : Main@Main
Format settings, BVOP : Yes
Format settings, Matrix : Default
Format settings, GOP : M=3, N=12
Duration : 16mn 54s
Bit rate mode : Variable
Bit rate : 7 015 Kbps
Nominal bit rate : 7 800 Kbps
Width : 720 pixels
Height : 576 pixels
Display aspect ratio : 16:9
Frame rate : 25.000 fps
Standard : PAL
Color space : YUV
Chroma subsampling : 4:2:0
Bit depth : 8 bits
Scan type : Interlaced
Scan order : Top Field First
Compression mode : Lossy
Bits/(Pixel*Frame) : 0.677
Stream size : 848 MiB (83%)
Audio #1
ID : 128 (0x80)
Format : AC-3
Format/Info : Audio Coding 3
Mode extension : CM (complete main)
Duration : 16mn 54s
Bit rate mode : Constant
Bit rate : 448 Kbps
Channel(s) : 6 channels
Channel positions : Front: L C R, Side: L R, LFE
Sampling rate : 48.0 KHz
Bit depth : 16 bits
Compression mode : Lossy
Video delay : -688ms
Stream size : 54.2 MiB (5%)
Audio #2
ID : 129 (0x81)
Format : AC-3
Format/Info : Audio Coding 3
Mode extension : CM (complete main)
Duration : 16mn 54s
Bit rate mode : Constant
Bit rate : 192 Kbps
Channel(s) : 2 channels
Channel positions : Front: L R
Sampling rate : 48.0 KHz
Bit depth : 16 bits
Compression mode : Lossy
Video delay : -624ms
Stream size : 23.2 MiB (2%)
Audio #3
ID : 130 (0x82)
Format : AC-3
Format/Info : Audio Coding 3
Mode extension : CM (complete main)
Duration : 16mn 54s
Bit rate mode : Constant
Bit rate : 448 Kbps
Channel(s) : 6 channels
Channel positions : Front: L C R, Side: L R, LFE
Sampling rate : 48.0 KHz
Bit depth : 16 bits
Compression mode : Lossy
Video delay : -688ms
Stream size : 54.2 MiB (5%)
Audio #4
ID : 131 (0x83)
Format : AC-3
Format/Info : Audio Coding 3
Mode extension : CM (complete main)
Duration : 16mn 54s
Bit rate mode : Constant
Bit rate : 192 Kbps
Channel(s) : 2 channels
Channel positions : Front: L R
Sampling rate : 48.0 KHz
Bit depth : 16 bits
Compression mode : Lossy
Video delay : -624ms
Stream size : 23.2 MiB (2%)
Text #1
ID : 32 (0x20)
Format : RLE
Format/Info : Run-length encoding
Duration : 16mn 53s
Video delay : 200ms
Text #2
ID : 33 (0x21)
Format : RLE
Format/Info : Run-length encoding
Video delay : 520ms
Text #3
ID : 34 (0x22)
Format : RLE
Format/Info : Run-length encoding
Duration : 16mn 53s
Video delay : 720ms
Menu
General
Complete name : D:\Мои релизы\Cobardes [DVD9]\VIDEO_TS\VTS_01_4.VOB
Format : MPEG-PS
File size : 1 024 MiB
Duration : 17mn 0s
Overall bit rate : 8 421 Kbps
Video
ID : 224 (0xE0)
Format : MPEG Video
Format version : Version 2
Format profile : Main@Main
Format settings, BVOP : Yes
Format settings, Matrix : Default
Format settings, GOP : M=3, N=12
Duration : 16mn 59s
Bit rate mode : Variable
Bit rate : 6 974 Kbps
Nominal bit rate : 7 800 Kbps
Width : 720 pixels
Height : 576 pixels
Display aspect ratio : 16:9
Frame rate : 25.000 fps
Standard : PAL
Color space : YUV
Chroma subsampling : 4:2:0
Bit depth : 8 bits
Scan type : Interlaced
Scan order : Top Field First
Compression mode : Lossy
Bits/(Pixel*Frame) : 0.673
Stream size : 848 MiB (83%)
Audio #1
ID : 128 (0x80)
Format : AC-3
Format/Info : Audio Coding 3
Mode extension : CM (complete main)
Duration : 16mn 59s
Bit rate mode : Constant
Bit rate : 448 Kbps
Channel(s) : 6 channels
Channel positions : Front: L C R, Side: L R, LFE
Sampling rate : 48.0 KHz
Bit depth : 16 bits
Compression mode : Lossy
Video delay : -432ms
Stream size : 54.5 MiB (5%)
Audio #2
ID : 129 (0x81)
Format : AC-3
Format/Info : Audio Coding 3
Mode extension : CM (complete main)
Duration : 17mn 0s
Bit rate mode : Constant
Bit rate : 192 Kbps
Channel(s) : 2 channels
Channel positions : Front: L R
Sampling rate : 48.0 KHz
Bit depth : 16 bits
Compression mode : Lossy
Video delay : -368ms
Stream size : 23.3 MiB (2%)
Audio #3
ID : 130 (0x82)
Format : AC-3
Format/Info : Audio Coding 3
Mode extension : CM (complete main)
Duration : 16mn 59s
Bit rate mode : Constant
Bit rate : 448 Kbps
Channel(s) : 6 channels
Channel positions : Front: L C R, Side: L R, LFE
Sampling rate : 48.0 KHz
Bit depth : 16 bits
Compression mode : Lossy
Video delay : -432ms
Stream size : 54.5 MiB (5%)
Audio #4
ID : 131 (0x83)
Format : AC-3
Format/Info : Audio Coding 3
Mode extension : CM (complete main)
Duration : 17mn 0s
Bit rate mode : Constant
Bit rate : 192 Kbps
Channel(s) : 2 channels
Channel positions : Front: L R
Sampling rate : 48.0 KHz
Bit depth : 16 bits
Compression mode : Lossy
Video delay : -368ms
Stream size : 23.3 MiB (2%)
Text
ID : 33 (0x21)
Format : RLE
Format/Info : Run-length encoding
Video delay : 1s 480ms
Menu
General
Complete name : D:\Мои релизы\Cobardes [DVD9]\VIDEO_TS\VTS_01_5.VOB
Format : MPEG-PS
File size : 931 MiB
Duration : 16mn 33s
Overall bit rate : 7 864 Kbps
Video
ID : 224 (0xE0)
Format : MPEG Video
Format version : Version 2
Format profile : Main@Main
Format settings, BVOP : Yes
Format settings, Matrix : Default
Format settings, GOP : M=3, N=12
Duration : 16mn 33s
Bit rate mode : Variable
Bit rate : 6 428 Kbps
Nominal bit rate : 7 800 Kbps
Width : 720 pixels
Height : 576 pixels
Display aspect ratio : 16:9
Frame rate : 25.000 fps
Standard : PAL
Color space : YUV
Chroma subsampling : 4:2:0
Bit depth : 8 bits
Scan type : Interlaced
Scan order : Top Field First
Compression mode : Lossy
Bits/(Pixel*Frame) : 0.620
Stream size : 761 MiB (82%)
Audio #1
ID : 128 (0x80)
Format : AC-3
Format/Info : Audio Coding 3
Mode extension : CM (complete main)
Duration : 16mn 31s
Bit rate mode : Constant
Bit rate : 448 Kbps
Channel(s) : 6 channels
Channel positions : Front: L C R, Side: L R, LFE
Sampling rate : 48.0 KHz
Bit depth : 16 bits
Compression mode : Lossy
Video delay : -464ms
Stream size : 53.0 MiB (6%)
Audio #2
ID : 129 (0x81)
Format : AC-3
Format/Info : Audio Coding 3
Mode extension : CM (complete main)
Duration : 16mn 31s
Bit rate mode : Constant
Bit rate : 192 Kbps
Channel(s) : 2 channels
Channel positions : Front: L R
Sampling rate : 48.0 KHz
Bit depth : 16 bits
Compression mode : Lossy
Video delay : -368ms
Stream size : 22.7 MiB (2%)
Audio #3
ID : 130 (0x82)
Format : AC-3
Format/Info : Audio Coding 3
Mode extension : CM (complete main)
Duration : 16mn 31s
Bit rate mode : Constant
Bit rate : 448 Kbps
Channel(s) : 6 channels
Channel positions : Front: L C R, Side: L R, LFE
Sampling rate : 48.0 KHz
Bit depth : 16 bits
Compression mode : Lossy
Video delay : -464ms
Stream size : 53.0 MiB (6%)
Audio #4
ID : 131 (0x83)
Format : AC-3
Format/Info : Audio Coding 3
Mode extension : CM (complete main)
Duration : 16mn 31s
Bit rate mode : Constant
Bit rate : 192 Kbps
Channel(s) : 2 channels
Channel positions : Front: L R
Sampling rate : 48.0 KHz
Bit depth : 16 bits
Compression mode : Lossy
Video delay : -368ms
Stream size : 22.7 MiB (2%)
Text #1
ID : 32 (0x20)
Format : RLE
Format/Info : Run-length encoding
Video delay : 1s 360ms
Text #2
ID : 33 (0x21)
Format : RLE
Format/Info : Run-length encoding
Video delay : 840ms
Text #3
ID : 34 (0x22)
Format : RLE
Format/Info : Run-length encoding
Video delay : 1s 800ms
Menu
General
Complete name : D:\Мои релизы\Cobardes [DVD9]\VIDEO_TS\VTS_02_0.BUP
Format : DVD Video
Format profile : Program
File size : 18.0 KiB
Duration : 2mn 39s
Overall bit rate : 927 bps
Video
ID : 224 (0xE0)
Format : MPEG Video
Format version : Version 2
Duration : 2mn 39s
Bit rate mode : Variable
Width : 720 pixels
Height : 576 pixels
Display aspect ratio : 4:3
Frame rate : 25.000 fps
Standard : PAL
Compression mode : Lossy
Audio
ID : 128 (0x80)
Format : AC-3
Format/Info : Audio Coding 3
Duration : 2mn 39s
Channel(s) : 2 channels
Sampling rate : 48.0 KHz
Compression mode : Lossy
Language : Spanish
Menu #1
Duration : 1mn 26s
00:00:00.000 : Chapter 1
List (Audio) : 0
Menu #2
Duration : 2mn 39s
00:00:00.000 : Chapter 1
List (Audio) : 0
Menu #3
General
Complete name : D:\Мои релизы\Cobardes [DVD9]\VIDEO_TS\VTS_02_0.IFO
Format : DVD Video
Format profile : Program
File size : 18.0 KiB
Duration : 2mn 39s
Overall bit rate : 927 bps
Video
ID : 224 (0xE0)
Format : MPEG Video
Format version : Version 2
Duration : 2mn 39s
Bit rate mode : Variable
Width : 720 pixels
Height : 576 pixels
Display aspect ratio : 4:3
Frame rate : 25.000 fps
Standard : PAL
Compression mode : Lossy
Audio
ID : 128 (0x80)
Format : AC-3
Format/Info : Audio Coding 3
Duration : 2mn 39s
Channel(s) : 2 channels
Sampling rate : 48.0 KHz
Compression mode : Lossy
Language : Spanish
Menu #1
Duration : 1mn 26s
00:00:00.000 : Chapter 1
List (Audio) : 0
Menu #2
Duration : 2mn 39s
00:00:00.000 : Chapter 1
List (Audio) : 0
Menu #3
General
Complete name : D:\Мои релизы\Cobardes [DVD9]\VIDEO_TS\VTS_02_0.VOB
Format : MPEG-PS
File size : 76.0 KiB
Duration : 40ms
Overall bit rate : 15.6 Mbps
Video
ID : 224 (0xE0)
Format : MPEG Video
Format version : Version 2
Format profile : Main@Main
Format settings, BVOP : No
Format settings, Matrix : Default
Duration : 40ms
Bit rate mode : Constant
Bit rate : 8 000 Kbps
Width : 720 pixels
Height : 576 pixels
Display aspect ratio : 16:9
Frame rate : 25.000 fps
Standard : PAL
Color space : YUV
Chroma subsampling : 4:2:0
Bit depth : 8 bits
Scan type : Progressive
Scan order : Top Field First
Compression mode : Lossy
Bits/(Pixel*Frame) : 0.772
Stream size : 39.1 KiB (51%)
Text #1
ID : 32 (0x20)
Format : RLE
Format/Info : Run-length encoding
Text #2
ID : 33 (0x21)
Format : RLE
Format/Info : Run-length encoding
Menu
General
Complete name : D:\Мои релизы\Cobardes [DVD9]\VIDEO_TS\VTS_02_1.VOB
Format : MPEG-PS
File size : 155 MiB
Duration : 2mn 39s
Overall bit rate : 8 174 Kbps
Video
ID : 224 (0xE0)
Format : MPEG Video
Format version : Version 2
Format profile : Main@Main
Format settings, BVOP : Yes
Format settings, Matrix : Default
Format settings, GOP : M=3, N=12
Duration : 2mn 38s
Bit rate mode : Constant
Bit rate : 7 820 Kbps
Nominal bit rate : 5 000 Kbps
Width : 720 pixels
Height : 576 pixels
Display aspect ratio : 4:3
Frame rate : 25.000 fps
Standard : PAL
Color space : YUV
Chroma subsampling : 4:2:0
Bit depth : 8 bits
Scan type : Interlaced
Scan order : Top Field First
Compression mode : Lossy
Bits/(Pixel*Frame) : 0.754
Stream size : 148 MiB (96%)
Audio
ID : 128 (0x80)
Format : AC-3
Format/Info : Audio Coding 3
Mode extension : CM (complete main)
Duration : 2mn 39s
Bit rate mode : Constant
Bit rate : 192 Kbps
Channel(s) : 2 channels
Channel positions : Front: L R
Sampling rate : 48.0 KHz
Bit depth : 16 bits
Compression mode : Lossy
Video delay : -80ms
Stream size : 3.64 MiB (2%)
Menu
General
Complete name : D:\Мои релизы\Cobardes [DVD9]\VIDEO_TS\VTS_03_0.BUP
Format : DVD Video
Format profile : Program
File size : 20.0 KiB
Duration : 1mn 51s
Overall bit rate : 1 464 bps
Video
ID : 224 (0xE0)
Format : MPEG Video
Format version : Version 2
Duration : 1mn 51s
Bit rate mode : Variable
Width : 720 pixels
Height : 576 pixels
Display aspect ratio : 4:3
Frame rate : 25.000 fps
Standard : PAL
Compression mode : Lossy
Audio
ID : 128 (0x80)
Format : AC-3
Format/Info : Audio Coding 3
Duration : 1mn 51s
Channel(s) : 2 channels
Sampling rate : 48.0 KHz
Compression mode : Lossy
Language : Spanish
Menu #1
Duration : 1mn 51s
00:00:00.000 : Chapter 1
List (Audio) : 0
Menu #2
Duration : 44s 40ms
00:00:00.000 : Chapter 1
List (Audio) : 0
General
Complete name : D:\Мои релизы\Cobardes [DVD9]\VIDEO_TS\VTS_03_0.IFO
Format : DVD Video
Format profile : Program
File size : 20.0 KiB
Duration : 1mn 51s
Overall bit rate : 1 464 bps
Video
ID : 224 (0xE0)
Format : MPEG Video
Format version : Version 2
Duration : 1mn 51s
Bit rate mode : Variable
Width : 720 pixels
Height : 576 pixels
Display aspect ratio : 4:3
Frame rate : 25.000 fps
Standard : PAL
Compression mode : Lossy
Audio
ID : 128 (0x80)
Format : AC-3
Format/Info : Audio Coding 3
Duration : 1mn 51s
Channel(s) : 2 channels
Sampling rate : 48.0 KHz
Compression mode : Lossy
Language : Spanish
Menu #1
Duration : 1mn 51s
00:00:00.000 : Chapter 1
List (Audio) : 0
Menu #2
Duration : 44s 40ms
00:00:00.000 : Chapter 1
List (Audio) : 0
General
Complete name : D:\Мои релизы\Cobardes [DVD9]\VIDEO_TS\VTS_03_0.VOB
Format : MPEG-PS
File size : 180 KiB
Duration : 40ms
Overall bit rate : 36.9 Mbps
Video
ID : 224 (0xE0)
Format : MPEG Video
Format version : Version 2
Format profile : Main@Main
Format settings, BVOP : No
Format settings, Matrix : Default
Format settings, GOP : N=1
Duration : 40ms
Bit rate mode : Constant
Bit rate : 8 000 Kbps
Width : 720 pixels
Height : 576 pixels
Display aspect ratio : 16:9
Frame rate : 25.000 fps
Standard : PAL
Color space : YUV
Chroma subsampling : 4:2:0
Bit depth : 8 bits
Scan type : Progressive
Scan order : Top Field First
Compression mode : Lossy
Bits/(Pixel*Frame) : 0.772
Stream size : 39.1 KiB (22%)
Text #1
ID : 32 (0x20)
Format : RLE
Format/Info : Run-length encoding
Text #2
ID : 33 (0x21)
Format : RLE
Format/Info : Run-length encoding
Menu
General
Complete name : D:\Мои релизы\Cobardes [DVD9]\VIDEO_TS\VTS_03_1.VOB
Format : MPEG-PS
File size : 181 MiB
Duration : 2mn 15s
Overall bit rate : 11.2 Mbps
Video
ID : 224 (0xE0)
Format : MPEG Video
Format version : Version 2
Format profile : Main@Main
Format settings, BVOP : Yes
Format settings, Matrix : Default
Format settings, GOP : M=3, N=12
Duration : 2mn 14s
Bit rate mode : Variable
Bit rate : 10.8 Mbps
Nominal bit rate : 9 000 Kbps
Width : 720 pixels
Height : 576 pixels
Display aspect ratio : 4:3
Frame rate : 25.000 fps
Standard : PAL
Color space : YUV
Chroma subsampling : 4:2:0
Bit depth : 8 bits
Scan type : Interlaced
Scan order : Top Field First
Compression mode : Lossy
Bits/(Pixel*Frame) : 1.044
Stream size : 174 MiB (96%)
Audio
ID : 128 (0x80)
Format : AC-3
Format/Info : Audio Coding 3
Mode extension : CM (complete main)
Duration : 2mn 15s
Bit rate mode : Constant
Bit rate : 192 Kbps
Channel(s) : 2 channels
Channel positions : Front: L R
Sampling rate : 48.0 KHz
Bit depth : 16 bits
Compression mode : Lossy
Video delay : -80ms
Stream size : 3.09 MiB (2%)
Menu
General
Complete name : D:\Мои релизы\Cobardes [DVD9]\VIDEO_TS\VTS_04_0.BUP
Format : DVD Video
Format profile : Program
File size : 18.0 KiB
Duration : 960ms
Overall bit rate : 154 Kbps
Video
ID : 224 (0xE0)
Format : MPEG Video
Format version : Version 2
Duration : 960ms
Bit rate mode : Variable
Width : 720 pixels
Height : 576 pixels
Display aspect ratio : 4:3
Frame rate : 25.000 fps
Standard : PAL
Compression mode : Lossy
Audio
ID : 128 (0x80)
Format : AC-3
Format/Info : Audio Coding 3
Duration : 960ms
Channel(s) : 2 channels
Sampling rate : 48.0 KHz
Compression mode : Lossy
Language : Spanish
Menu
Duration : 960ms
00:00:00.000 : Chapter 1
00:00:00.480 : Chapter 2
List (Audio) : 0
General
Complete name : D:\Мои релизы\Cobardes [DVD9]\VIDEO_TS\VTS_04_0.IFO
Format : DVD Video
Format profile : Program
File size : 18.0 KiB
Duration : 960ms
Overall bit rate : 154 Kbps
Video
ID : 224 (0xE0)
Format : MPEG Video
Format version : Version 2
Duration : 960ms
Bit rate mode : Variable
Width : 720 pixels
Height : 576 pixels
Display aspect ratio : 4:3
Frame rate : 25.000 fps
Standard : PAL
Compression mode : Lossy
Audio
ID : 128 (0x80)
Format : AC-3
Format/Info : Audio Coding 3
Duration : 960ms
Channel(s) : 2 channels
Sampling rate : 48.0 KHz
Compression mode : Lossy
Language : Spanish
Menu
Duration : 960ms
00:00:00.000 : Chapter 1
00:00:00.480 : Chapter 2
List (Audio) : 0
General
Complete name : D:\Мои релизы\Cobardes [DVD9]\VIDEO_TS\VTS_04_0.VOB
Format : MPEG-PS
File size : 10.0 KiB
Duration : 40ms
Overall bit rate : 2 048 Kbps
Video
ID : 224 (0xE0)
Format : MPEG Video
Format version : Version 2
Format profile : Main@Main
Format settings, BVOP : No
Format settings, Matrix : Default
Duration : 40ms
Bit rate mode : Constant
Bit rate : 8 000 Kbps
Width : 720 pixels
Height : 576 pixels
Display aspect ratio : 16:9
Frame rate : 25.000 fps
Standard : PAL
Color space : YUV
Chroma subsampling : 4:2:0
Bit depth : 8 bits
Scan type : Progressive
Scan order : Top Field First
Compression mode : Lossy
Bits/(Pixel*Frame) : 0.772
Stream size : 39.1 KiB
Menu
General
Complete name : D:\Мои релизы\Cobardes [DVD9]\VIDEO_TS\VTS_04_1.VOB
Format : MPEG-PS
File size : 20.0 KiB
Duration : 40ms
Overall bit rate : 4 096 Kbps
Video
ID : 224 (0xE0)
Format : MPEG Video
Format version : Version 2
Format profile : Main@Main
Format settings, BVOP : No
Format settings, Matrix : Default
Format settings, GOP : N=1
Duration : 40ms
Bit rate mode : Constant
Bit rate : 8 000 Kbps
Width : 720 pixels
Height : 576 pixels
Display aspect ratio : 16:9
Frame rate : 25.000 fps
Standard : PAL
Color space : YUV
Chroma subsampling : 4:2:0
Bit depth : 8 bits
Scan type : Progressive
Scan order : Top Field First
Compression mode : Lossy
Bits/(Pixel*Frame) : 0.772
Stream size : 39.1 KiB
Menu
General
Complete name : D:\Мои релизы\Cobardes [DVD9]\VIDEO_TS\VTS_05_0.BUP
Format : DVD Video
Format profile : Program
File size : 18.0 KiB
Duration : 480ms
Overall bit rate : 307 Kbps
Video
ID : 224 (0xE0)
Format : MPEG Video
Format version : Version 2
Duration : 480ms
Bit rate mode : Variable
Width : 720 pixels
Height : 576 pixels
Display aspect ratio : 4:3
Frame rate : 25.000 fps
Standard : PAL
Compression mode : Lossy
Audio
ID : 128 (0x80)
Format : AC-3
Format/Info : Audio Coding 3
Duration : 480ms
Channel(s) : 2 channels
Sampling rate : 48.0 KHz
Compression mode : Lossy
Language : Spanish
Menu
Duration : 480ms
00:00:00.000 : Chapter 1
List (Audio) : 0
General
Complete name : D:\Мои релизы\Cobardes [DVD9]\VIDEO_TS\VTS_05_0.IFO
Format : DVD Video
Format profile : Program
File size : 18.0 KiB
Duration : 480ms
Overall bit rate : 307 Kbps
Video
ID : 224 (0xE0)
Format : MPEG Video
Format version : Version 2
Duration : 480ms
Bit rate mode : Variable
Width : 720 pixels
Height : 576 pixels
Display aspect ratio : 4:3
Frame rate : 25.000 fps
Standard : PAL
Compression mode : Lossy
Audio
ID : 128 (0x80)
Format : AC-3
Format/Info : Audio Coding 3
Duration : 480ms
Channel(s) : 2 channels
Sampling rate : 48.0 KHz
Compression mode : Lossy
Language : Spanish
Menu
Duration : 480ms
00:00:00.000 : Chapter 1
List (Audio) : 0
General
Complete name : D:\Мои релизы\Cobardes [DVD9]\VIDEO_TS\VTS_05_0.VOB
Format : MPEG-PS
File size : 10.0 KiB
Duration : 40ms
Overall bit rate : 2 048 Kbps
Video
ID : 224 (0xE0)
Format : MPEG Video
Format version : Version 2
Format profile : Main@Main
Format settings, BVOP : No
Format settings, Matrix : Default
Duration : 40ms
Bit rate mode : Constant
Bit rate : 8 000 Kbps
Width : 720 pixels
Height : 576 pixels
Display aspect ratio : 16:9
Frame rate : 25.000 fps
Standard : PAL
Color space : YUV
Chroma subsampling : 4:2:0
Bit depth : 8 bits
Scan type : Progressive
Scan order : Top Field First
Compression mode : Lossy
Bits/(Pixel*Frame) : 0.772
Stream size : 39.1 KiB
Menu
General
Complete name : D:\Мои релизы\Cobardes [DVD9]\VIDEO_TS\VTS_05_1.VOB
Format : MPEG-PS
File size : 10.0 KiB
Duration : 40ms
Overall bit rate : 2 048 Kbps
Video
ID : 224 (0xE0)
Format : MPEG Video
Format version : Version 2
Format profile : Main@Main
Format settings, BVOP : No
Format settings, Matrix : Default
Duration : 40ms
Bit rate mode : Constant
Bit rate : 8 000 Kbps
Width : 720 pixels
Height : 576 pixels
Display aspect ratio : 16:9
Frame rate : 25.000 fps
Standard : PAL
Color space : YUV
Chroma subsampling : 4:2:0
Bit depth : 8 bits
Scan type : Progressive
Scan order : Top Field First
Compression mode : Lossy
Bits/(Pixel*Frame) : 0.772
Stream size : 39.1 KiB
Menu
General
Complete name : D:\Мои релизы\Cobardes [DVD9]\VIDEO_TS\VTS_06_0.BUP
Format : DVD Video
Format profile : Program
File size : 18.0 KiB
Duration : 960ms
Overall bit rate : 154 Kbps
Video
ID : 224 (0xE0)
Format : MPEG Video
Format version : Version 2
Duration : 960ms
Bit rate mode : Variable
Width : 720 pixels
Height : 576 pixels
Display aspect ratio : 16:9
Frame rate : 25.000 fps
Standard : PAL
Compression mode : Lossy
Menu
Duration : 960ms
00:00:00.000 : Chapter 1
00:00:00.480 : Chapter 2
General
Complete name : D:\Мои релизы\Cobardes [DVD9]\VIDEO_TS\VTS_06_0.IFO
Format : DVD Video
Format profile : Program
File size : 18.0 KiB
Duration : 960ms
Overall bit rate : 154 Kbps
Video
ID : 224 (0xE0)
Format : MPEG Video
Format version : Version 2
Duration : 960ms
Bit rate mode : Variable
Width : 720 pixels
Height : 576 pixels
Display aspect ratio : 16:9
Frame rate : 25.000 fps
Standard : PAL
Compression mode : Lossy
Menu
Duration : 960ms
00:00:00.000 : Chapter 1
00:00:00.480 : Chapter 2
General
Complete name : D:\Мои релизы\Cobardes [DVD9]\VIDEO_TS\VTS_06_0.VOB
Format : MPEG-PS
File size : 10.0 KiB
Duration : 40ms
Overall bit rate : 2 048 Kbps
Video
ID : 224 (0xE0)
Format : MPEG Video
Format version : Version 2
Format profile : Main@Main
Format settings, BVOP : No
Format settings, Matrix : Default
Duration : 40ms
Bit rate mode : Constant
Bit rate : 8 000 Kbps
Width : 720 pixels
Height : 576 pixels
Display aspect ratio : 16:9
Frame rate : 25.000 fps
Standard : PAL
Color space : YUV
Chroma subsampling : 4:2:0
Bit depth : 8 bits
Scan type : Progressive
Scan order : Top Field First
Compression mode : Lossy
Bits/(Pixel*Frame) : 0.772
Stream size : 39.1 KiB
Menu
General
Complete name : D:\Мои релизы\Cobardes [DVD9]\VIDEO_TS\VTS_06_1.VOB
Format : MPEG-PS
File size : 20.0 KiB
Duration : 40ms
Overall bit rate : 4 096 Kbps
Video
ID : 224 (0xE0)
Format : MPEG Video
Format version : Version 2
Format profile : Main@Main
Format settings, BVOP : No
Format settings, Matrix : Default
Format settings, GOP : N=1
Duration : 40ms
Bit rate mode : Constant
Bit rate : 8 000 Kbps
Width : 720 pixels
Height : 576 pixels
Display aspect ratio : 16:9
Frame rate : 25.000 fps
Standard : PAL
Color space : YUV
Chroma subsampling : 4:2:0
Bit depth : 8 bits
Scan type : Progressive
Scan order : Top Field First
Compression mode : Lossy
Bits/(Pixel*Frame) : 0.772
Stream size : 39.1 KiB
Menu
General
Complete name : D:\Мои релизы\Cobardes [DVD9]\VIDEO_TS\VTS_07_0.BUP
Format : DVD Video
Format profile : Program
File size : 14.0 KiB
Duration : 500ms
Overall bit rate : 229 Kbps
Video
ID : 224 (0xE0)
Format : MPEG Video
Format version : Version 2
Duration : 520ms
Bit rate mode : Variable
Width : 720 pixels
Height : 576 pixels
Display aspect ratio : 16:9
Frame rate : 25.000 fps
Standard : PAL
Compression mode : Lossy
Audio #1
ID : 128 (0x80)
Format : AC-3
Format/Info : Audio Coding 3
Duration : 500ms
Channel(s) : 6 channels
Sampling rate : 48.0 KHz
Compression mode : Lossy
Language : Spanish
Audio #2
ID : 137 (0x89)
Format : DTS
Format/Info : Digital Theater Systems
Duration : 500ms
Channel(s) : 6 channels
Sampling rate : 48.0 KHz
Compression mode : Lossy
Language : Spanish
Audio #3
ID : 130 (0x82)
Format : AC-3
Format/Info : Audio Coding 3
Duration : 500ms
Channel(s) : 6 channels
Sampling rate : 48.0 KHz
Compression mode : Lossy
Language : Catalan
Audio #4
ID : 131 (0x83)
Format : AC-3
Format/Info : Audio Coding 3
Duration : 500ms
Channel(s) : 2 channels
Sampling rate : 48.0 KHz
Compression mode : Lossy
Text #1
ID : 32 (0x20)
Format : RLE
Format/Info : Run-length encoding
Bit depth : 2 bits
Language : English
Text #2
ID : 33 (0x21)
Format : RLE
Format/Info : Run-length encoding
Bit depth : 2 bits
Menu
Duration : 500ms
00:00:00.000 : Chapter 1
List (Audio) : 0 / 1 / 2 / 3
List (Subtitles 4/3) : 0 / 0
List (Subtitles Wide) : 0 / 1
List (Subtitles Letterbox) : 0 / 1
List (Subtitles Pan&Scan) : 0 / 0
General
Complete name : D:\Мои релизы\Cobardes [DVD9]\VIDEO_TS\VTS_07_0.IFO
Format : DVD Video
Format profile : Program
File size : 14.0 KiB
Duration : 500ms
Overall bit rate : 229 Kbps
Video
ID : 224 (0xE0)
Format : MPEG Video
Format version : Version 2
Duration : 520ms
Bit rate mode : Variable
Width : 720 pixels
Height : 576 pixels
Display aspect ratio : 16:9
Frame rate : 25.000 fps
Standard : PAL
Compression mode : Lossy
Audio #1
ID : 128 (0x80)
Format : AC-3
Format/Info : Audio Coding 3
Duration : 500ms
Channel(s) : 6 channels
Sampling rate : 48.0 KHz
Compression mode : Lossy
Language : Spanish
Audio #2
ID : 137 (0x89)
Format : DTS
Format/Info : Digital Theater Systems
Duration : 500ms
Channel(s) : 6 channels
Sampling rate : 48.0 KHz
Compression mode : Lossy
Language : Spanish
Audio #3
ID : 130 (0x82)
Format : AC-3
Format/Info : Audio Coding 3
Duration : 500ms
Channel(s) : 6 channels
Sampling rate : 48.0 KHz
Compression mode : Lossy
Language : Catalan
Audio #4
ID : 131 (0x83)
Format : AC-3
Format/Info : Audio Coding 3
Duration : 500ms
Channel(s) : 2 channels
Sampling rate : 48.0 KHz
Compression mode : Lossy
Text #1
ID : 32 (0x20)
Format : RLE
Format/Info : Run-length encoding
Bit depth : 2 bits
Language : English
Text #2
ID : 33 (0x21)
Format : RLE
Format/Info : Run-length encoding
Bit depth : 2 bits
Menu
Duration : 500ms
00:00:00.000 : Chapter 1
List (Audio) : 0 / 1 / 2 / 3
List (Subtitles 4/3) : 0 / 0
List (Subtitles Wide) : 0 / 1
List (Subtitles Letterbox) : 0 / 1
List (Subtitles Pan&Scan) : 0 / 0
General
Complete name : D:\Мои релизы\Cobardes [DVD9]\VIDEO_TS\VTS_07_1.VOB
Format : MPEG-PS
File size : 8.00 KiB
Duration : 33ms
Overall bit rate : 1 986 Kbps
Video
ID : 224 (0xE0)
Format : MPEG Video
Format version : Version 2
Format profile : Main@Main
Format settings, BVOP : No
Format settings, Matrix : Default
Duration : 33ms
Bit rate mode : Constant
Bit rate : 8 000 Kbps
Width : 720 pixels
Height : 480 pixels
Display aspect ratio : 16:9
Frame rate : 29.970 fps
Standard : NTSC
Color space : YUV
Chroma subsampling : 4:2:0
Bit depth : 8 bits
Scan type : Progressive
Scan order : Top Field First
Compression mode : Lossy
Bits/(Pixel*Frame) : 0.772
Stream size : 32.2 KiB
Menu
General
Complete name : D:\Мои релизы\Cobardes [DVD9]\VIDEO_TS\VTS_08_0.BUP
Format : DVD Video
Format profile : Program
File size : 12.0 KiB
Duration : 500ms
Overall bit rate : 197 Kbps
Video
ID : 224 (0xE0)
Format : MPEG Video
Format version : Version 2
Duration : 520ms
Bit rate mode : Variable
Width : 720 pixels
Height : 576 pixels
Display aspect ratio : 16:9
Frame rate : 25.000 fps
Standard : PAL
Compression mode : Lossy
Audio #1
Format : AC-3
Format/Info : Audio Coding 3
Duration : 500ms
Channel(s) : 6 channels
Sampling rate : 48.0 KHz
Compression mode : Lossy
Language : Spanish
Audio #2
Format : DTS
Format/Info : Digital Theater Systems
Duration : 500ms
Channel(s) : 6 channels
Sampling rate : 48.0 KHz
Compression mode : Lossy
Language : Spanish
Audio #3
Format : AC-3
Format/Info : Audio Coding 3
Duration : 500ms
Channel(s) : 6 channels
Sampling rate : 48.0 KHz
Compression mode : Lossy
Language : Catalan
Audio #4
Format : AC-3
Format/Info : Audio Coding 3
Duration : 500ms
Channel(s) : 2 channels
Sampling rate : 48.0 KHz
Compression mode : Lossy
Text #1
Format : RLE
Format/Info : Run-length encoding
Bit depth : 2 bits
Language : English
Text #2
Format : RLE
Format/Info : Run-length encoding
Bit depth : 2 bits
Menu
Duration : 500ms
00:00:00.000 : Chapter 1
General
Complete name : D:\Мои релизы\Cobardes [DVD9]\VIDEO_TS\VTS_08_0.IFO
Format : DVD Video
Format profile : Program
File size : 12.0 KiB
Duration : 500ms
Overall bit rate : 197 Kbps
Video
ID : 224 (0xE0)
Format : MPEG Video
Format version : Version 2
Duration : 520ms
Bit rate mode : Variable
Width : 720 pixels
Height : 576 pixels
Display aspect ratio : 16:9
Frame rate : 25.000 fps
Standard : PAL
Compression mode : Lossy
Audio #1
Format : AC-3
Format/Info : Audio Coding 3
Duration : 500ms
Channel(s) : 6 channels
Sampling rate : 48.0 KHz
Compression mode : Lossy
Language : Spanish
Audio #2
Format : DTS
Format/Info : Digital Theater Systems
Duration : 500ms
Channel(s) : 6 channels
Sampling rate : 48.0 KHz
Compression mode : Lossy
Language : Spanish
Audio #3
Format : AC-3
Format/Info : Audio Coding 3
Duration : 500ms
Channel(s) : 6 channels
Sampling rate : 48.0 KHz
Compression mode : Lossy
Language : Catalan
Audio #4
Format : AC-3
Format/Info : Audio Coding 3
Duration : 500ms
Channel(s) : 2 channels
Sampling rate : 48.0 KHz
Compression mode : Lossy
Text #1
Format : RLE
Format/Info : Run-length encoding
Bit depth : 2 bits
Language : English
Text #2
Format : RLE
Format/Info : Run-length encoding
Bit depth : 2 bits
Menu
Duration : 500ms
00:00:00.000 : Chapter 1
General
Complete name : D:\Мои релизы\Cobardes [DVD9]\VIDEO_TS\VTS_08_1.VOB
Format : MPEG-PS
File size : 8.00 KiB
Duration : 33ms
Overall bit rate : 1 986 Kbps
Video
ID : 224 (0xE0)
Format : MPEG Video
Format version : Version 2
Format profile : Main@Main
Format settings, BVOP : No
Format settings, Matrix : Default
Duration : 33ms
Bit rate mode : Constant
Bit rate : 8 000 Kbps
Width : 720 pixels
Height : 480 pixels
Display aspect ratio : 16:9
Frame rate : 29.970 fps
Standard : NTSC
Color space : YUV
Chroma subsampling : 4:2:0
Bit depth : 8 bits
Scan type : Progressive
Scan order : Top Field First
Compression mode : Lossy
Bits/(Pixel*Frame) : 0.772
Stream size : 32.2 KiB
Menu
General
Complete name : D:\Мои релизы\Cobardes [DVD9]\VIDEO_TS\VTS_09_0.BUP
Format : DVD Video
Format profile : Program
File size : 12.0 KiB
Duration : 500ms
Overall bit rate : 197 Kbps
Video
ID : 224 (0xE0)
Format : MPEG Video
Format version : Version 2
Duration : 520ms
Bit rate mode : Variable
Width : 720 pixels
Height : 576 pixels
Display aspect ratio : 16:9
Frame rate : 25.000 fps
Standard : PAL
Compression mode : Lossy
Audio #1
Format : AC-3
Format/Info : Audio Coding 3
Duration : 500ms
Channel(s) : 6 channels
Sampling rate : 48.0 KHz
Compression mode : Lossy
Language : Spanish
Audio #2
Format : DTS
Format/Info : Digital Theater Systems
Duration : 500ms
Channel(s) : 6 channels
Sampling rate : 48.0 KHz
Compression mode : Lossy
Language : Spanish
Audio #3
Format : AC-3
Format/Info : Audio Coding 3
Duration : 500ms
Channel(s) : 6 channels
Sampling rate : 48.0 KHz
Compression mode : Lossy
Language : Catalan
Audio #4
Format : AC-3
Format/Info : Audio Coding 3
Duration : 500ms
Channel(s) : 2 channels
Sampling rate : 48.0 KHz
Compression mode : Lossy
Text #1
Format : RLE
Format/Info : Run-length encoding
Bit depth : 2 bits
Language : English
Text #2
Format : RLE
Format/Info : Run-length encoding
Bit depth : 2 bits
Menu
Duration : 500ms
00:00:00.000 : Chapter 1
General
Complete name : D:\Мои релизы\Cobardes [DVD9]\VIDEO_TS\VTS_09_0.IFO
Format : DVD Video
Format profile : Program
File size : 12.0 KiB
Duration : 500ms
Overall bit rate : 197 Kbps
Video
ID : 224 (0xE0)
Format : MPEG Video
Format version : Version 2
Duration : 520ms
Bit rate mode : Variable
Width : 720 pixels
Height : 576 pixels
Display aspect ratio : 16:9
Frame rate : 25.000 fps
Standard : PAL
Compression mode : Lossy
Audio #1
Format : AC-3
Format/Info : Audio Coding 3
Duration : 500ms
Channel(s) : 6 channels
Sampling rate : 48.0 KHz
Compression mode : Lossy
Language : Spanish
Audio #2
Format : DTS
Format/Info : Digital Theater Systems
Duration : 500ms
Channel(s) : 6 channels
Sampling rate : 48.0 KHz
Compression mode : Lossy
Language : Spanish
Audio #3
Format : AC-3
Format/Info : Audio Coding 3
Duration : 500ms
Channel(s) : 6 channels
Sampling rate : 48.0 KHz
Compression mode : Lossy
Language : Catalan
Audio #4
Format : AC-3
Format/Info : Audio Coding 3
Duration : 500ms
Channel(s) : 2 channels
Sampling rate : 48.0 KHz
Compression mode : Lossy
Text #1
Format : RLE
Format/Info : Run-length encoding
Bit depth : 2 bits
Language : English
Text #2
Format : RLE
Format/Info : Run-length encoding
Bit depth : 2 bits
Menu
Duration : 500ms
00:00:00.000 : Chapter 1
General
Complete name : D:\Мои релизы\Cobardes [DVD9]\VIDEO_TS\VTS_09_1.VOB
Format : MPEG-PS
File size : 8.00 KiB
Duration : 33ms
Overall bit rate : 1 986 Kbps
Video
ID : 224 (0xE0)
Format : MPEG Video
Format version : Version 2
Format profile : Main@Main
Format settings, BVOP : No
Format settings, Matrix : Default
Duration : 33ms
Bit rate mode : Constant
Bit rate : 8 000 Kbps
Width : 720 pixels
Height : 480 pixels
Display aspect ratio : 16:9
Frame rate : 29.970 fps
Standard : NTSC
Color space : YUV
Chroma subsampling : 4:2:0
Bit depth : 8 bits
Scan type : Progressive
Scan order : Top Field First
Compression mode : Lossy
Bits/(Pixel*Frame) : 0.772
Stream size : 32.2 KiB
Menu
General
Complete name : D:\Мои релизы\Cobardes [DVD9]\VIDEO_TS\VTS_10_0.BUP
Format : DVD Video
Format profile : Program
File size : 30.0 KiB
Duration : 500ms
Overall bit rate : 492 Kbps
Video
ID : 224 (0xE0)
Format : MPEG Video
Format version : Version 2
Duration : 520ms
Bit rate mode : Variable
Width : 720 pixels
Height : 576 pixels
Display aspect ratio : 16:9
Frame rate : 25.000 fps
Standard : PAL
Compression mode : Lossy
Audio #1
ID : 128 (0x80)
Format : AC-3
Format/Info : Audio Coding 3
Duration : 500ms
Channel(s) : 6 channels
Sampling rate : 48.0 KHz
Compression mode : Lossy
Language : Spanish
Audio #2
ID : 137 (0x89)
Format : DTS
Format/Info : Digital Theater Systems
Duration : 500ms
Channel(s) : 6 channels
Sampling rate : 48.0 KHz
Compression mode : Lossy
Language : Spanish
Audio #3
ID : 130 (0x82)
Format : AC-3
Format/Info : Audio Coding 3
Duration : 500ms
Channel(s) : 6 channels
Sampling rate : 48.0 KHz
Compression mode : Lossy
Language : Catalan
Audio #4
ID : 131 (0x83)
Format : AC-3
Format/Info : Audio Coding 3
Duration : 500ms
Channel(s) : 2 channels
Sampling rate : 48.0 KHz
Compression mode : Lossy
Text #1
ID : 32 (0x20)
Format : RLE
Format/Info : Run-length encoding
Bit depth : 2 bits
Language : English
Text #2
ID : 33 (0x21)
Format : RLE
Format/Info : Run-length encoding
Bit depth : 2 bits
Menu #1
Duration : 500ms
00:00:00.000 : Chapter 1
List (Audio) : 0 / 1 / 2 / 3
List (Subtitles 4/3) : 0 / 0
List (Subtitles Wide) : 0 / 1
List (Subtitles Letterbox) : 0 / 1
List (Subtitles Pan&Scan) : 0 / 0
Menu #2
Duration : 500ms
00:00:00.000 : Chapter 1
List (Audio) : 0 / 1 / 2 / 3
List (Subtitles 4/3) : 0 / 0
List (Subtitles Wide) : 0 / 1
List (Subtitles Letterbox) : 0 / 1
List (Subtitles Pan&Scan) : 0 / 0
General
Complete name : D:\Мои релизы\Cobardes [DVD9]\VIDEO_TS\VTS_10_0.IFO
Format : DVD Video
Format profile : Program
File size : 30.0 KiB
Duration : 500ms
Overall bit rate : 492 Kbps
Video
ID : 224 (0xE0)
Format : MPEG Video
Format version : Version 2
Duration : 520ms
Bit rate mode : Variable
Width : 720 pixels
Height : 576 pixels
Display aspect ratio : 16:9
Frame rate : 25.000 fps
Standard : PAL
Compression mode : Lossy
Audio #1
ID : 128 (0x80)
Format : AC-3
Format/Info : Audio Coding 3
Duration : 500ms
Channel(s) : 6 channels
Sampling rate : 48.0 KHz
Compression mode : Lossy
Language : Spanish
Audio #2
ID : 137 (0x89)
Format : DTS
Format/Info : Digital Theater Systems
Duration : 500ms
Channel(s) : 6 channels
Sampling rate : 48.0 KHz
Compression mode : Lossy
Language : Spanish
Audio #3
ID : 130 (0x82)
Format : AC-3
Format/Info : Audio Coding 3
Duration : 500ms
Channel(s) : 6 channels
Sampling rate : 48.0 KHz
Compression mode : Lossy
Language : Catalan
Audio #4
ID : 131 (0x83)
Format : AC-3
Format/Info : Audio Coding 3
Duration : 500ms
Channel(s) : 2 channels
Sampling rate : 48.0 KHz
Compression mode : Lossy
Text #1
ID : 32 (0x20)
Format : RLE
Format/Info : Run-length encoding
Bit depth : 2 bits
Language : English
Text #2
ID : 33 (0x21)
Format : RLE
Format/Info : Run-length encoding
Bit depth : 2 bits
Menu #1
Duration : 500ms
00:00:00.000 : Chapter 1
List (Audio) : 0 / 1 / 2 / 3
List (Subtitles 4/3) : 0 / 0
List (Subtitles Wide) : 0 / 1
List (Subtitles Letterbox) : 0 / 1
List (Subtitles Pan&Scan) : 0 / 0
Menu #2
Duration : 500ms
00:00:00.000 : Chapter 1
List (Audio) : 0 / 1 / 2 / 3
List (Subtitles 4/3) : 0 / 0
List (Subtitles Wide) : 0 / 1
List (Subtitles Letterbox) : 0 / 1
List (Subtitles Pan&Scan) : 0 / 0
General
Complete name : D:\Мои релизы\Cobardes [DVD9]\VIDEO_TS\VTS_10_1.VOB
Format : MPEG-PS
File size : 8.00 KiB
Duration : 33ms
Overall bit rate : 1 986 Kbps
Video
ID : 224 (0xE0)
Format : MPEG Video
Format version : Version 2
Format profile : Main@Main
Format settings, BVOP : No
Format settings, Matrix : Default
Duration : 33ms
Bit rate mode : Constant
Bit rate : 8 000 Kbps
Width : 720 pixels
Height : 480 pixels
Display aspect ratio : 16:9
Frame rate : 29.970 fps
Standard : NTSC
Color space : YUV
Chroma subsampling : 4:2:0
Bit depth : 8 bits
Scan type : Progressive
Scan order : Top Field First
Compression mode : Lossy
Bits/(Pixel*Frame) : 0.772
Stream size : 32.2 KiB
Menu
General
Complete name : D:\Мои релизы\Cobardes [DVD9]\VIDEO_TS\VTS_11_0.BUP
Format : DVD Video
Format profile : Program
File size : 12.0 KiB
Duration : 500ms
Overall bit rate : 197 Kbps
Video
ID : 224 (0xE0)
Format : MPEG Video
Format version : Version 2
Duration : 520ms
Bit rate mode : Variable
Width : 720 pixels
Height : 576 pixels
Display aspect ratio : 16:9
Frame rate : 25.000 fps
Standard : PAL
Compression mode : Lossy
Audio #1
Format : AC-3
Format/Info : Audio Coding 3
Duration : 500ms
Channel(s) : 6 channels
Sampling rate : 48.0 KHz
Compression mode : Lossy
Language : Spanish
Audio #2
Format : DTS
Format/Info : Digital Theater Systems
Duration : 500ms
Channel(s) : 6 channels
Sampling rate : 48.0 KHz
Compression mode : Lossy
Language : Spanish
Audio #3
Format : AC-3
Format/Info : Audio Coding 3
Duration : 500ms
Channel(s) : 6 channels
Sampling rate : 48.0 KHz
Compression mode : Lossy
Language : Catalan
Audio #4
Format : AC-3
Format/Info : Audio Coding 3
Duration : 500ms
Channel(s) : 2 channels
Sampling rate : 48.0 KHz
Compression mode : Lossy
Text #1
Format : RLE
Format/Info : Run-length encoding
Bit depth : 2 bits
Language : English
Text #2
Format : RLE
Format/Info : Run-length encoding
Bit depth : 2 bits
Menu
Duration : 500ms
00:00:00.000 : Chapter 1
General
Complete name : D:\Мои релизы\Cobardes [DVD9]\VIDEO_TS\VTS_11_0.IFO
Format : DVD Video
Format profile : Program
File size : 12.0 KiB
Duration : 500ms
Overall bit rate : 197 Kbps
Video
ID : 224 (0xE0)
Format : MPEG Video
Format version : Version 2
Duration : 520ms
Bit rate mode : Variable
Width : 720 pixels
Height : 576 pixels
Display aspect ratio : 16:9
Frame rate : 25.000 fps
Standard : PAL
Compression mode : Lossy
Audio #1
Format : AC-3
Format/Info : Audio Coding 3
Duration : 500ms
Channel(s) : 6 channels
Sampling rate : 48.0 KHz
Compression mode : Lossy
Language : Spanish
Audio #2
Format : DTS
Format/Info : Digital Theater Systems
Duration : 500ms
Channel(s) : 6 channels
Sampling rate : 48.0 KHz
Compression mode : Lossy
Language : Spanish
Audio #3
Format : AC-3
Format/Info : Audio Coding 3
Duration : 500ms
Channel(s) : 6 channels
Sampling rate : 48.0 KHz
Compression mode : Lossy
Language : Catalan
Audio #4
Format : AC-3
Format/Info : Audio Coding 3
Duration : 500ms
Channel(s) : 2 channels
Sampling rate : 48.0 KHz
Compression mode : Lossy
Text #1
Format : RLE
Format/Info : Run-length encoding
Bit depth : 2 bits
Language : English
Text #2
Format : RLE
Format/Info : Run-length encoding
Bit depth : 2 bits
Menu
Duration : 500ms
00:00:00.000 : Chapter 1
General
Complete name : D:\Мои релизы\Cobardes [DVD9]\VIDEO_TS\VTS_11_1.VOB
Format : MPEG-PS
File size : 8.00 KiB
Duration : 33ms
Overall bit rate : 1 986 Kbps
Video
ID : 224 (0xE0)
Format : MPEG Video
Format version : Version 2
Format profile : Main@Main
Format settings, BVOP : No
Format settings, Matrix : Default
Duration : 33ms
Bit rate mode : Constant
Bit rate : 8 000 Kbps
Width : 720 pixels
Height : 480 pixels
Display aspect ratio : 16:9
Frame rate : 29.970 fps
Standard : NTSC
Color space : YUV
Chroma subsampling : 4:2:0
Bit depth : 8 bits
Scan type : Progressive
Scan order : Top Field First
Compression mode : Lossy
Bits/(Pixel*Frame) : 0.772
Stream size : 32.2 KiB
Menu
General
Complete name : D:\Мои релизы\Cobardes [DVD9]\VIDEO_TS\VTS_12_0.BUP
Format : DVD Video
Format profile : Program
File size : 14.0 KiB
Duration : 500ms
Overall bit rate : 229 Kbps
Video
ID : 224 (0xE0)
Format : MPEG Video
Format version : Version 2
Duration : 520ms
Bit rate mode : Variable
Width : 720 pixels
Height : 576 pixels
Display aspect ratio : 16:9
Frame rate : 25.000 fps
Standard : PAL
Compression mode : Lossy
Audio #1
ID : 128 (0x80)
Format : AC-3
Format/Info : Audio Coding 3
Duration : 500ms
Channel(s) : 6 channels
Sampling rate : 48.0 KHz
Compression mode : Lossy
Language : Spanish
Audio #2
ID : 137 (0x89)
Format : DTS
Format/Info : Digital Theater Systems
Duration : 500ms
Channel(s) : 6 channels
Sampling rate : 48.0 KHz
Compression mode : Lossy
Language : Spanish
Audio #3
ID : 130 (0x82)
Format : AC-3
Format/Info : Audio Coding 3
Duration : 500ms
Channel(s) : 6 channels
Sampling rate : 48.0 KHz
Compression mode : Lossy
Language : Catalan
Audio #4
ID : 131 (0x83)
Format : AC-3
Format/Info : Audio Coding 3
Duration : 500ms
Channel(s) : 2 channels
Sampling rate : 48.0 KHz
Compression mode : Lossy
Text #1
ID : 32 (0x20)
Format : RLE
Format/Info : Run-length encoding
Bit depth : 2 bits
Language : English
Text #2
ID : 33 (0x21)
Format : RLE
Format/Info : Run-length encoding
Bit depth : 2 bits
Menu
Duration : 500ms
00:00:00.000 : Chapter 1
List (Audio) : 0 / 1 / 2 / 3
List (Subtitles 4/3) : 0 / 0
List (Subtitles Wide) : 0 / 1
List (Subtitles Letterbox) : 0 / 1
List (Subtitles Pan&Scan) : 0 / 0
General
Complete name : D:\Мои релизы\Cobardes [DVD9]\VIDEO_TS\VTS_12_0.IFO
Format : DVD Video
Format profile : Program
File size : 14.0 KiB
Duration : 500ms
Overall bit rate : 229 Kbps
Video
ID : 224 (0xE0)
Format : MPEG Video
Format version : Version 2
Duration : 520ms
Bit rate mode : Variable
Width : 720 pixels
Height : 576 pixels
Display aspect ratio : 16:9
Frame rate : 25.000 fps
Standard : PAL
Compression mode : Lossy
Audio #1
ID : 128 (0x80)
Format : AC-3
Format/Info : Audio Coding 3
Duration : 500ms
Channel(s) : 6 channels
Sampling rate : 48.0 KHz
Compression mode : Lossy
Language : Spanish
Audio #2
ID : 137 (0x89)
Format : DTS
Format/Info : Digital Theater Systems
Duration : 500ms
Channel(s) : 6 channels
Sampling rate : 48.0 KHz
Compression mode : Lossy
Language : Spanish
Audio #3
ID : 130 (0x82)
Format : AC-3
Format/Info : Audio Coding 3
Duration : 500ms
Channel(s) : 6 channels
Sampling rate : 48.0 KHz
Compression mode : Lossy
Language : Catalan
Audio #4
ID : 131 (0x83)
Format : AC-3
Format/Info : Audio Coding 3
Duration : 500ms
Channel(s) : 2 channels
Sampling rate : 48.0 KHz
Compression mode : Lossy
Text #1
ID : 32 (0x20)
Format : RLE
Format/Info : Run-length encoding
Bit depth : 2 bits
Language : English
Text #2
ID : 33 (0x21)
Format : RLE
Format/Info : Run-length encoding
Bit depth : 2 bits
Menu
Duration : 500ms
00:00:00.000 : Chapter 1
List (Audio) : 0 / 1 / 2 / 3
List (Subtitles 4/3) : 0 / 0
List (Subtitles Wide) : 0 / 1
List (Subtitles Letterbox) : 0 / 1
List (Subtitles Pan&Scan) : 0 / 0
General
Complete name : D:\Мои релизы\Cobardes [DVD9]\VIDEO_TS\VTS_12_1.VOB
Format : MPEG-PS
File size : 8.00 KiB
Duration : 33ms
Overall bit rate : 1 986 Kbps
Video
ID : 224 (0xE0)
Format : MPEG Video
Format version : Version 2
Format profile : Main@Main
Format settings, BVOP : No
Format settings, Matrix : Default
Duration : 33ms
Bit rate mode : Constant
Bit rate : 8 000 Kbps
Width : 720 pixels
Height : 480 pixels
Display aspect ratio : 16:9
Frame rate : 29.970 fps
Standard : NTSC
Color space : YUV
Chroma subsampling : 4:2:0
Bit depth : 8 bits
Scan type : Progressive
Scan order : Top Field First
Compression mode : Lossy
Bits/(Pixel*Frame) : 0.772
Stream size : 32.2 KiB
Menu

Скриншоты меню

Скриншоты

Скриншоты доп. материалов

[Profile]  [PM] 
Display posts:    
Reply to topic

Current time is: 14-Apr 00:17

All times are UTC + 2



You cannot post new topics in this forum
You cannot reply to topics in this forum
You cannot edit your posts in this forum
You cannot delete your posts in this forum
You cannot vote in polls in this forum
You cannot attach files in this forum
You cannot download files in this forum