Добро пожаловать в ПОП / Pop Redemption (Мартин Ле Галь / Martin Le Gall) [2013, Франция, комедия, музыка, DVD5] R5 MVO

Reply to topic
 
Author
Message

Faust ®

Gender: Unknown

Longevity: 9 years 6 months

Posts: 14955

Reputation: 0 [+] [-]

Faust · Post 05-Dec-2014 02:15

[Quote] 

-Добро пожаловать в ПОП / Pop Redemption -Страна: Франция
Студия: 22h22, A Plus Image 4, Avalon, Canal+ [fr], Centre National de la Cinématographie (CNC), Ciné, Gaumont, Jouror Distribution, Région Aquitaine, Région Midi-Pyrénées
Жанр: комедия, музыка
Год выпуска: 2013
Мировая премьера: 17 января 2013
Российская премьера: 14 августа 2014, «Ракета Релизинг»
Дата выхода DVD: 20 ноября 2014, «CD Land»
Продолжительность: 01:30:47
Перевод: Профессиональный (многоголосый закадровый) [Лицензия]
Cубтитры: нет
Оригинальная аудиодорожка: нет-Режиссер: Мартин Ле Галь / Martin Le Gall-В ролях: Жюльен Доре, Грегори Гадебуа, Джонатан Коэн, Ясин Белусс, Одри Флеро, Александр Астье, Делия Эпина-Диэф, Арсен Моска, Кристоф Курочкин, Винсент Ленардт...-Описание: Рокеров со стажем, играющих в стиле блэк-метал, приглашают принять участие в крупном рок-фестивале, проходящем во Франции. Не то чтобы их группа была очень популярной, просто во всей Франции металлистов раз, два и обчелся. Парни решают воспользоваться шансом и тряхнуть стариной. Но в дороге с ним происходит казус — по нелепой случайности в аварии погибает человек. Парни уверены, что теперь им светит тюрьма. Они решают скрыться от полиции, чтобы успеть выступить на фестивале своей мечты. Однако туда еще надо добраться. Для этого им придется отложить в стороны свои рокерские прикиды и резко сменить имидж, выдавая себя за группу хиппи, поющих про любовь и мир во всем мире. А это для брутальных рокеров будет сделать ой как не просто!-Бонусы: нет- -Релиз группы: -Качество: DVD5 R5
Формат: DVD-Video
Видео кодек: MPEG2
Аудио кодек: AC3
Видео: PAL 16:9 (720x576(0.579)) MPEG Video, 25,000 кадр/сек, 6000 Кбит/сек
Аудио: Russian (Dolby AC3, 6 ch) 448 Кбит/сек, 48,0 КГц--

DVDInfo

Title: Dobro.pozhalovat.v.POP.2013.DVD5
Size: 4.27 Gb ( 4 474 294,00 KBytes ) - DVD-5
Enabled regions: 1, 2, 3, 4, 5, 6, 7, 8
VTS_01 :
Play Length: 00:00:19
Video: PAL 16:9 (720x576) VBR, Auto Pan&Scan, Auto Letterboxed
Audio:
Not specified (Dolby AC3, 2 ch)
VTS_02 :
Play Length: 01:30:47
Video: PAL 16:9 (720x576) VBR, Auto Pan&Scan, Auto Letterboxed
Audio:
Not specified (Dolby AC3, 6 ch)
* Menus Information *
VIDEO_TS Menu
Video:
PAL 16:9 (720x576) VBR
Auto Pan&Scan, Auto Letterboxed
English Language Unit :
Title Menu
VTS_01 Menu
Video:
PAL 16:9 (720x576) VBR
Auto Pan&Scan, Auto Letterboxed
Audio:
Not specified (Dolby AC3, 6 ch)
English Language Unit :
Root Menu
VTS_02 Menu
Video:
PAL 4:3 (720x576) VBR
English Language Unit :
Root Menu

MediaInfo

Общее
Полное имя : F:\Новинки 2014\Dobro.pozhalovat.v.POP.2013.DVD5\VIDEO_TS\VTS_02_1.VOB
Формат : MPEG-PS
Размер файла : 1024 Мбайт
Продолжительность : 21 м.
Общий поток : 6571 Кбит/сек
Видео
Идентификатор : 224 (0xE0)
Формат : MPEG Video
Версия формата : Version 2
Профиль формата : Main@Main
Параметр BVOP формата : Да
Параметр матрицы формата : По умолчанию
Параметр GOP формата : M=3, N=12
Продолжительность : 21 м.
Битрейт : 6000 Кбит/сек
Ширина : 720 пикселей
Высота : 576 пикселей
Соотношение сторон : 16:9
Частота кадров : 25,000 кадров/сек
Стандарт вещания : PAL
Цветовое пространство : YUV
Субдискретизация насыщенности : 4:2:0
Битовая глубина : 8 бит
Тип развёртки : Прогрессивная
Метод сжатия : С потерями
Бит/(Пиксели*Кадры) : 0.579
Временной код первого кадра : 00:00:00:00
Оригинал временного кода : Group of pictures header
Размер потока : 934 Мбайт (91%)
Аудио
Идентификатор : 189 (0xBD)-128 (0x80)
Формат : AC-3
Формат/Информация : Audio Coding 3
Расширение режима : CM (complete main)
Параметр Endianness формата : Big
Режим смешивания : DVD-Video
Продолжительность : 21 м.
Вид битрейта : Постоянный
Битрейт : 448 Кбит/сек
Каналы : 6 каналов
Расположение каналов : Front: L C R, Side: L R, LFE
Частота : 48,0 КГц
Битовая глубина : 16 бит
Метод сжатия : С потерями
Размер потока : 69,8 Мбайт (7%)

Скриншоты меню

Скриншоты фильма


-
-Раздача от группы:
[Profile]  [PM] 
Display posts:    
Reply to topic

Current time is: 14-Apr 01:41

All times are UTC + 2



You cannot post new topics in this forum
You cannot reply to topics in this forum
You cannot edit your posts in this forum
You cannot delete your posts in this forum
You cannot vote in polls in this forum
You cannot attach files in this forum
You cannot download files in this forum