Сводные братья / Step Brothers (Адам МакКэй / Adam McKay) [2008, США, комедия, HDTV 1080i] MVO (1канал)

Reply to topic
 
Author
Message

Faust ®

Gender: Unknown

Longevity: 10 years

Posts: 16609

Reputation: 0 [+] [-]

Faust · Post 25-May-2014 00:56

[Quote] 

Сводные братья / Step Brothers
Страна: США
Жанр: комедия
Год выпуска: 2008
Продолжительность: 01:30:58
Перевод: Профессиональный (многоголосый закадровый)
Cубтитры: нет
Оригинальная аудиодорожка: нет
Режиссер: Адам МакКэй / Adam McKay
В ролях: Уилл Феррелл, Джон Си Райли, Мэри Стинберген, Ричард Дженкинс, Адам Скотт, Кэтрин Хан, Андреа Сэвадж, Лури Постон, Elizabeth Yozamp, Логан Манус
Описание: "Маменькин сынок" - явление неприятное, но довольно распространенное. А вот "папенькин сынок" - это уже случай особый. Когда же двум великовозрастным балбесам неожиданно приходится делить одну комнату на двоих вот тут-то и начинается термоядерная смесь!!!
Бреннан Хаф - 39-летний домосед и Дейл Добак - 40-летний лежебока неожиданно становятся братьями. Родители-одиночки, всю жизнь обеспечивающие полный пансион своим чадам, решили скрепить союз узами брака после судьбоносной встречи на конференции. Новоиспеченная семья собирается под одной крышей с одной же спальней для сыновей.
Естественно, такой расклад не устраивает избалованных "мальчиков" и они начинают ненавидеть друг друга лютой ненавистью. Но неожиданно они обнаруживают, что у них не так уж и много различий. Что, подобно 12-летним подросткам, они оказались заперты во взрослых телах. И тут-то, когда невероятная дружба начала скреплять их братские узы, родители решили развестись. Удастся ли теперь кому-либо разлучить братьев? Или они сами выведут кого угодно из игры?
Сэмпл: http://multi-up.com/952961
Тип релиза: HDTV 1080i
Контейнер: TS
Видео: AVC, 1920x1080 (16/9), 25.000 fps, 12.3 Mbps (0.237 bit/pixel)
Аудио: MP2, 48.0 KHz, 2 ch, 192 Kbps, CBR (Russian)

MediaInfo

Общее
Идентификатор : 3 (0x3)
Полное имя : H:\БОЛЬШОЕ видео\ТВ записи\Сводные братья.TS
Формат : MPEG-TS
Размер файла : 8,51 Гбайт
Продолжительность : 1 ч. 30 м.
Режим общего битрейта : Переменный
Общий поток : 13,4 Мбит/сек
Видео
Идентификатор : 2141 (0x85D)
Идентификатор меню : 21004 (0x520C)
Формат : AVC
Формат/Информация : Advanced Video Codec
Профиль формата : Main@L4.0
Параметр CABAC формата : Да
Параметр ReFrames формата : 3 кадра
Идентификатор кодека : 27
Продолжительность : 1 ч. 30 м.
Битрейт : 12,5 Мбит/сек
Ширина : 1920 пикселей
Высота : 1080 пикселей
Соотношение сторон : 16:9
Частота кадров : 25,000 кадров/сек
Стандарт вещания : Component
Цветовое пространство : YUV
Субдискретизация насыщенности : 4:2:0
Битовая глубина : 8 бит
Тип развёртки : Чересстрочная
Порядок развёртки : Верхнее поле первое
Бит/(Пиксели*Кадры) : 0.242
Размер потока : 7,96 Гбайт (94%)
Основные цвета : BT.709
Характеристики трансфера : BT.709
Коэффициенты матрицы : BT.709
Аудио
Идентификатор : 2142 (0x85E)
Идентификатор меню : 21004 (0x520C)
Формат : MPEG Audio
Версия формата : Version 1
Профиль формата : Layer 2
Идентификатор кодека : 4
Продолжительность : 1 ч. 30 м.
Вид битрейта : Постоянный
Битрейт : 192 Кбит/сек
Каналы : 2 канала
Частота : 48,0 КГц
Метод сжатия : С потерями
Задержка видео : -16 мс.
Размер потока : 125 Мбайт (1%)
Язык : Russian

Скриншоты


[Profile]  [PM] 
Display posts:    
Reply to topic

Current time is: 04-Dec 01:06

All times are UTC + 2



You cannot post new topics in this forum
You cannot reply to topics in this forum
You cannot edit your posts in this forum
You cannot delete your posts in this forum
You cannot vote in polls in this forum
You cannot attach files in this forum
You cannot download files in this forum