Она прекрасна / She\'s So Lovely (Ник Кассаветис / Nick Cassavetes) [1997, Франция, США, драма, BDRip 720p] 2xMVO + Original (Eng) + Sub (Rus, Eng)

Reply to topic
 
Author
Message

Faust ®

Gender: Unknown

Longevity: 10 years

Posts: 16609

Reputation: 0 [+] [-]

Faust · Post 25-May-2014 00:56

[Quote] 

Она прекрасна / She's So Lovely«The story of one outrageous woman. Caught between two men. Both of them certain of one thing...»- Страна: Франция, США
Жанр: драма
Год выпуска: 1997
Продолжительность: 01:36:24-Перевод №1: Профессиональный (многоголосый закадровый)
Перевод №2: Профессиональный (многоголосый закадровый) - Премьер Видео
Оригинальная аудиодорожка: English
Cубтитры: Russian, English
Навигация по главам: Присутствует-Режиссер: Ник Кассаветис / Nick Cassavetes
В ролях: Шон Пенн, Робин Райт, Джон Траволта, Джеймс Гандольфини, Сьюзен Трейлор, Гарри Дин Стэнтон, Деби Мейзар, Бобби Купер, Джон Маршалл Джонс, Хлоя Уэбб-Описание: Молодые супруги Эдди и Морин безумно влюблены друг в друга. Но когда пьяный сосед начинает приставать к Морин, несдержанный, к тому же, вечно под кайфом, Эдди бросается на него, после чего попадает в тюрьму на десять лет. Возвратившись, он обнаруживает, что Морин вышла замуж за положительного Джоуи, который любит ее не меньше, чем он сам. Морин разрывается между прошлым и настоящим, между двумя мужчинами, которые ей дороги…-imdb.com: 5.90 (6338)
kinopoisk.ru: 6.791 (839)
Download sample-Качество видео: BDRip 720p | исх. She's So Lovely (1997) 1080p BD-Remux (tnx dsk71)
Формат видео: MKV-Видео: 1280x546 at 23.976 fps, x264@L4.1, 2pass, ~5250 kbps avg
Аудио №1: 48 kHz, AC3, 3/2 (L,C,R,l,r) + LFE ch, ~448.00 kbps avg | Профессиональный (многоголосый закадровый)
Аудио №2: 48 kHz, AC3, 2/0 (L,R) ch, ~192.00 kbps avg | Профессиональный (многоголосый закадровый) - Премьер Видео
Аудио №3: 48 kHz/24-bit, DTS, 3/2 (L,C,R,l,r) + LFE ch, ~1509.00 kbps avg | English-

Дополнительно

Сохранены оригинальные чаптеры как на Blu-ray.
За оцифровку дорожки Премьер Видео с VHS спасибо team_6strun.

MediaInfo

Общее
Уникальный идентификатор : 244188740853437603104553831034494570823 (0xB7B50A7278830CE892D770C17D22D147)
Полное имя : D:\She's.So.Lovely.1997.720p.BluRay.2xRus.Eng.HDCLUB.mkv
Формат : Matroska
Версия формата : Version 2
Размер файла : 4,98 Гбайт
Продолжительность : 1 ч. 36 м.
Общий поток : 7398 Кбит/сек
Дата кодирования : UTC 2013-11-23 14:02:39
Программа кодирования : mkvmerge v5.8.0 ('No Sleep / Pillow') built on Sep 2 2012 15:37:04
Библиотека кодирования : libebml v1.2.3 + libmatroska v1.3.0
Видео
Идентификатор : 1
Формат : AVC
Формат/Информация : Advanced Video Codec
Профиль формата : High@L4.1
Параметр CABAC формата : Да
Параметр ReFrames формата : 8 кадров
Идентификатор кодека : V_MPEG4/ISO/AVC
Продолжительность : 1 ч. 36 м.
Битрейт : 5250 Кбит/сек
Ширина : 1280 пикселей
Высота : 546 пикселей
Соотношение сторон : 2,35:1
Режим частоты кадров : Постоянный
Частота кадров : 23,976 кадра/сек
Цветовое пространство : YUV
Субдискретизация насыщенности : 4:2:0
Битовая глубина : 8 бит
Тип развёртки : Прогрессивная
Бит/(Пиксели*Кадры) : 0.313
Размер потока : 3,44 Гбайт (69%)
Заголовок : Она прекрасна / She's So Lovely (1997) - Release for HDClub
Библиотека кодирования : x264 core 140 r2377 1ca7bb9
Настройки программы : cabac=1 / ref=8 / deblock=1:-3:-3 / analyse=0x3:0x113 / me=umh / subme=11 / psy=1 / psy_rd=1.05:0.00 / mixed_ref=1 / me_range=32 / chroma_me=1 / trellis=2 / 8x8dct=1 / cqm=0 / deadzone=21,11 / fast_pskip=0 / chroma_qp_offset=-2 / threads=12 / lookahead_threads=2 / sliced_threads=0 / nr=0 / decimate=0 / interlaced=0 / bluray_compat=0 / constrained_intra=0 / bframes=9 / b_pyramid=2 / b_adapt=2 / b_bias=0 / direct=3 / weightb=1 / open_gop=0 / weightp=2 / keyint=240 / keyint_min=23 / scenecut=40 / intra_refresh=0 / rc_lookahead=80 / rc=2pass / mbtree=0 / bitrate=5250 / ratetol=1.0 / qcomp=0.70 / qpmin=0 / qpmax=69 / qpstep=4 / cplxblur=20.0 / qblur=0.5 / vbv_maxrate=50000 / vbv_bufsize=62500 / nal_hrd=none / filler=0 / ip_ratio=1.40 / pb_ratio=1.30 / aq=2:0.70
Язык : English
Default : Да
Forced : Нет
Основные цвета : BT.709
Характеристики трансфера : BT.709
Коэффициенты матрицы : BT.709
Аудио #1
Идентификатор : 2
Формат : AC-3
Формат/Информация : Audio Coding 3
Расширение режима : CM (complete main)
Параметр Endianness формата : Big
Идентификатор кодека : A_AC3
Продолжительность : 1 ч. 36 м.
Вид битрейта : Постоянный
Битрейт : 448 Кбит/сек
Каналы : 6 каналов
Расположение каналов : Front: L C R, Side: L R, LFE
Частота : 48,0 КГц
Битовая глубина : 16 бит
Метод сжатия : С потерями
Размер потока : 309 Мбайт (6%)
Заголовок : Многоголосый закадровый, AC-3 448 Kbps 5/1
Язык : Russian
Default : Да
Forced : Нет
Аудио #2
Идентификатор : 3
Формат : AC-3
Формат/Информация : Audio Coding 3
Расширение режима : CM (complete main)
Параметр Endianness формата : Big
Идентификатор кодека : A_AC3
Продолжительность : 1 ч. 36 м.
Вид битрейта : Постоянный
Битрейт : 192 Кбит/сек
Каналы : 2 канала
Расположение каналов : Front: L R
Частота : 48,0 КГц
Битовая глубина : 16 бит
Метод сжатия : С потерями
Размер потока : 132 Мбайт (3%)
Заголовок : Многоголосый закадровый (Премьер Видео), AC-3 192 Kbps 2/0
Язык : Russian
Default : Нет
Forced : Нет
Аудио #3
Идентификатор : 4
Формат : DTS
Формат/Информация : Digital Theater Systems
Режим : 16
Параметр Endianness формата : Big
Идентификатор кодека : A_DTS
Продолжительность : 1 ч. 36 м.
Вид битрейта : Постоянный
Битрейт : 1509 Кбит/сек
Каналы : 6 каналов
Расположение каналов : Front: L C R, Side: L R, LFE
Частота : 48,0 КГц
Битовая глубина : 24 бит
Метод сжатия : С потерями
Размер потока : 1,02 Гбайт (20%)
Заголовок : Оригинал, DTS 48/24 1509 Kbps 5/1
Язык : English
Default : Нет
Forced : Нет
Текст #1
Идентификатор : 5
Формат : UTF-8
Идентификатор кодека : S_TEXT/UTF8
Идентификатор кодека/Информация : UTF-8 Plain Text
Заголовок : Субтитры
Язык : Russian
Default : Нет
Forced : Нет
Текст #2
Идентификатор : 6
Формат : UTF-8
Идентификатор кодека : S_TEXT/UTF8
Идентификатор кодека/Информация : UTF-8 Plain Text
Заголовок : Субтитры
Язык : English
Default : Нет
Forced : Нет
Меню
00:00:00.000 : en:Chapter 01
00:12:23.784 : en:Chapter 02
00:20:23.347 : en:Chapter 03
00:28:46.808 : en:Chapter 04
00:34:10.423 : en:Chapter 05
00:44:07.102 : en:Chapter 06
00:54:16.169 : en:Chapter 07
00:59:44.789 : en:Chapter 08
01:05:26.005 : en:Chapter 09
01:13:30.155 : en:Chapter 10
01:21:52.282 : en:Chapter 11
01:31:25.855 : en:Chapter 12

x264 log

raw [info]: 1280x546p 1:1 @ 24000/1001 fps (cfr)
x264 [info]: using SAR=1/1
x264 [info]: using cpu capabilities: MMX2 SSE2Fast SSSE3 SSE4.2 AVX
x264 [info]: profile High, level 4.1
x264 [info]: frame I:980 Avg QP:14.51 size: 92695
x264 [info]: frame P:27738 Avg QP:16.96 size: 45518
x264 [info]: frame B:109953 Avg QP:18.85 size: 22185
x264 [info]: consecutive B-frames: 1.6% 2.0% 6.5% 12.5% 11.8% 54.8% 4.5% 1.1% 4.4% 0.9%
x264 [info]: mb I I16..4: 1.7% 87.1% 11.2%
x264 [info]: mb P I16..4: 0.5% 17.2% 1.5% P16..4: 26.7% 37.3% 14.5% 0.0% 0.0% skip: 2.2%
x264 [info]: mb B I16..4: 0.1% 1.6% 0.2% B16..8: 42.5% 27.8% 5.1% direct:10.2% skip:12.6% L0:47.0% L1:40.4% BI:12.7%
x264 [info]: 8x8 transform intra:88.3% inter:58.9%
x264 [info]: direct mvs spatial:97.8% temporal:2.2%
x264 [info]: coded y,uvDC,uvAC intra: 92.7% 81.7% 45.1% inter: 56.7% 43.1% 7.2%
x264 [info]: i16 v,h,dc,p: 25% 7% 5% 63%
x264 [info]: i8 v,h,dc,ddl,ddr,vr,hd,vl,hu: 14% 6% 6% 9% 14% 14% 12% 13% 12%
x264 [info]: i4 v,h,dc,ddl,ddr,vr,hd,vl,hu: 35% 5% 5% 6% 12% 12% 9% 8% 8%
x264 [info]: i8c dc,h,v,p: 38% 26% 21% 15%
x264 [info]: Weighted P-Frames: Y:3.1% UV:1.0%
x264 [info]: ref P L0: 37.9% 9.7% 19.1% 9.5% 7.9% 6.2% 5.5% 3.8% 0.4% 0.0%
x264 [info]: ref B L0: 61.0% 16.1% 9.8% 5.6% 4.4% 2.3% 0.8%
x264 [info]: ref B L1: 89.1% 10.9%
x264 [info]: kb/s:5246.03
encoded 138671 frames, 8.70 fps, 5246.04 kb/s

Скриншоты

[Profile]  [PM] 
Display posts:    
Reply to topic

Current time is: 04-Dec 01:25

All times are UTC + 2



You cannot post new topics in this forum
You cannot reply to topics in this forum
You cannot edit your posts in this forum
You cannot delete your posts in this forum
You cannot vote in polls in this forum
You cannot attach files in this forum
You cannot download files in this forum