Полицейская академия 6: Город в осаде / Police Academy 6: City Under Siege (Питер Бонерз / Peter Bonerz) [1989, США, боевик, комедия, криминал, BDRip 720p] Dub +2x MVO + 2x DVO + 2x AVO + VO + Ukr + Original Eng + Sub Eng

Reply to topic
 
Author
Message

Faust ®

Gender: Unknown

Longevity: 10 years

Posts: 16609

Reputation: 0 [+] [-]

Faust · Post 25-May-2014 01:40

[Quote] 

Полицейская академия -1 | Полицейская академия -2 | Полицейская академия -3 | Полицейская академия -4 | Полицейская академия -5 | Полицейская академия -6 | Полицейская академия -7 |
Полицейская академия 6: Город в осаде / Police Academy 6: City Under Siege- Год выпуска: 1989
Выпущено: США
Жанр: боевик, комедия, криминал
Продолжительность: 01:23:55
Перевод: Профессиональный (полное дублирование) Варус-Видео
+ Профессиональный (Многоголосый, закадровый) Lazer Video
+ Профессиональный (двухголосый, закадровый) Карусель
+ Профессиональный (двухголосый, закадровый) НТВ
+ Авторский одноголосый А.Гаврилов
+ Авторский одноголосый Л.Володарский
+ Одноголосый закадровый Wizard
Субтитры: English-Режиссер: Питер Бонерз / Peter Bonerz
В ролях: Бубба Смит, Дэвид Граф, Майкл Уинслоу, Лесли Истербрук, Мэрион Рэмси, Лэнс Кинси, Мэтт МакКой, Брюс Малер, Дж. У. Бейли, Джордж Гейнс
О фильме: Вспышка криминальной активности под кодовым названием «Операция Хаос» может потребовать занавеса для ничего не подозревающего города. Лучшие полицейские специалисты из знаменитой Полицейской Академии взялись за дело.-DON!
Релиз: by Skoped
Формат: MKV
Видео: 1280x720 at 23.976 fps, x264@L4.1, crf, ~10000 kbps avg
Аудио #01: Russian: 48 kHz, AC3, 2/0 (L,R) ch, ~192.00 kbps avg |Дубляж, Варус Видео|
Аудио #02: Russian: 48 kHz, AC3, 2/0 (L,R) ch, ~192.00 kbps avg |Многоголосый закадровый, Lazer Video|
Аудио #03: Russian: 48 kHz, DTS, 1/0 (C) ch, ~755.00 kbps avg |Двухголосый закадровый, Карусель|
Аудио #04: Russian: 48 kHz, AC3, 2/0 (L,R) ch, ~192.00 kbps avg |Двухголосый закадровый, НТВ|
Аудио #05: Russian: 48 kHz, DTS, 1/0 (C) ch, ~755.00 kbps avg |Одноголосый закадровый, А.Гаврилов|
Аудио #06: Russian: 48 kHz, AC3, 2/0 (L,R) ch, ~192.00 kbps avg |Одноголосый закадровый, Л.Володарский|
Аудио #07: Russian: 48 kHz, AC3, 2/0 (L,R) ch, ~192.00 kbps avg |Одноголосый закадровый, Wizard|
Аудио #08: Ukrainian: 48 kHz, AC3, 2/0 (L,R) ch, ~192.00 kbps avg |Многоголосый закадровый, 1+1|
Аудио #09: English: 48 kHz, DTS, 1/0 (C) ch, ~755.00 kbps avg
Семпл-

Скриншоты


-

mInfo


Формат : Matroska
Версия формата : Version 4 / Version 2
Размер файла : 8,48 Гбайт
Продолжительность : 1 ч. 23 м.
Общий поток : 14,5 Мбит/сек
Название фильма : Police Academy 6: City Under Siege (1989) - Release for HDCLUB
Дата кодирования : UTC 2014-03-02 19:05:43
Программа кодирования : mkvmerge v6.1.0 ('Old Devil') built on Mar 2 2013 14:32:37
Библиотека кодирования : libebml v1.3.0 + libmatroska v1.4.0
Видео
Идентификатор : 1
Формат : AVC
Формат/Информация : Advanced Video Codec
Профиль формата : High@L4.1
Параметр CABAC формата : Да
Параметр ReFrames формата : 9 кадров
Идентификатор кодека : V_MPEG4/ISO/AVC
Продолжительность : 1 ч. 23 м.
Битрейт : 10,7 Мбит/сек
Ширина : 1280 пикселей
Высота : 720 пикселей
Соотношение сторон : 16:9
Режим частоты кадров : Постоянный
Частота кадров : 23,976 кадра/сек
Цветовое пространство : YUV
Субдискретизация насыщенности : 4:2:0
Битовая глубина : 8 бит
Тип развёртки : Прогрессивная
Бит/(Пиксели*Кадры) : 0.485
Размер потока : 6,29 Гбайт (74%)
Заголовок : HDCLUB
Библиотека кодирования : x264 core 140 r2377 1ca7bb9
Настройки программы : cabac=1 / ref=9 / deblock=1:-3:-3 / analyse=0x3:0x133 / me=umh / subme=10 / psy=1 / psy_rd=0.95:0.05 / mixed_ref=1 / me_range=32 / chroma_me=1 / trellis=2 / 8x8dct=1 / cqm=0 / deadzone=6,6 / fast_pskip=0 / chroma_qp_offset=-3 / threads=9 / lookahead_threads=1 / sliced_threads=0 / nr=0 / decimate=0 / interlaced=0 / bluray_compat=0 / constrained_intra=0 / bframes=8 / b_pyramid=2 / b_adapt=2 / b_bias=0 / direct=3 / weightb=1 / open_gop=0 / weightp=2 / keyint=250 / keyint_min=23 / scenecut=40 / intra_refresh=0 / rc=crf / mbtree=0 / crf=17.0 / qcomp=0.65 / qpmin=0 / qpmax=40 / qpstep=4 / ip_ratio=1.30 / pb_ratio=1.20 / aq=1:0.75
Язык : English
Default : Да
Forced : Нет
Коэффициенты матрицы : BT.709
Аудио #1
Идентификатор : 2
Формат : AC-3
Формат/Информация : Audio Coding 3
Расширение режима : CM (complete main)
Параметр Endianness формата : Big
Идентификатор кодека : A_AC3
Продолжительность : 1 ч. 23 м.
Вид битрейта : Постоянный
Битрейт : 192 Кбит/сек
Каналы : 2 канала
Расположение каналов : Front: L R
Частота : 48,0 КГц
Битовая глубина : 16 бит
Метод сжатия : С потерями
Размер потока : 115 Мбайт (1%)
Заголовок : AC3 2.0 @ 192 kbps - Дубляж, Варус Видео
Язык : Russian
Default : Да
Forced : Нет
Аудио #2
Идентификатор : 3
Формат : AC-3
Формат/Информация : Audio Coding 3
Расширение режима : CM (complete main)
Параметр Endianness формата : Big
Идентификатор кодека : A_AC3
Продолжительность : 1 ч. 23 м.
Вид битрейта : Постоянный
Битрейт : 192 Кбит/сек
Каналы : 2 канала
Расположение каналов : Front: L R
Частота : 48,0 КГц
Битовая глубина : 16 бит
Метод сжатия : С потерями
Размер потока : 115 Мбайт (1%)
Заголовок : AC3 2.0 @ 192 kbps - Многоголосый закадровый, Lazer Video
Язык : Russian
Default : Нет
Forced : Нет
Аудио #3
Идентификатор : 4
Формат : DTS
Формат/Информация : Digital Theater Systems
Режим : 16
Параметр Endianness формата : Big
Идентификатор кодека : A_DTS
Продолжительность : 1 ч. 23 м.
Вид битрейта : Постоянный
Битрейт : 768 Кбит/сек
Каналы : 1 канал
Расположение каналов : Front: C
Частота : 48,0 КГц
Битовая глубина : 24 бит
Метод сжатия : С потерями
Размер потока : 461 Мбайт (5%)
Заголовок : DTS 1.0 @ 768 kbps - Двухголосый закадровый, Карусель
Язык : Russian
Default : Нет
Forced : Нет
Аудио #4
Идентификатор : 5
Формат : AC-3
Формат/Информация : Audio Coding 3
Расширение режима : CM (complete main)
Параметр Endianness формата : Big
Идентификатор кодека : A_AC3
Продолжительность : 1 ч. 23 м.
Вид битрейта : Постоянный
Битрейт : 192 Кбит/сек
Каналы : 2 канала
Расположение каналов : Front: L R
Частота : 48,0 КГц
Битовая глубина : 16 бит
Метод сжатия : С потерями
Размер потока : 115 Мбайт (1%)
Заголовок : AC3 2.0 @ 192 kbps - Двухголосый закадровый, НТВ
Язык : Russian
Default : Нет
Forced : Нет
Аудио #5
Идентификатор : 6
Формат : DTS
Формат/Информация : Digital Theater Systems
Режим : 16
Параметр Endianness формата : Big
Идентификатор кодека : A_DTS
Продолжительность : 1 ч. 23 м.
Вид битрейта : Постоянный
Битрейт : 768 Кбит/сек
Каналы : 1 канал
Расположение каналов : Front: C
Частота : 48,0 КГц
Битовая глубина : 24 бит
Метод сжатия : С потерями
Размер потока : 461 Мбайт (5%)
Заголовок : DTS 1.0 @ 768 kbps - Одноголосый закадровый, А.Гаврилов
Язык : Russian
Default : Нет
Forced : Нет
Аудио #6
Идентификатор : 7
Формат : AC-3
Формат/Информация : Audio Coding 3
Расширение режима : CM (complete main)
Параметр Endianness формата : Big
Идентификатор кодека : A_AC3
Продолжительность : 1 ч. 23 м.
Вид битрейта : Постоянный
Битрейт : 192 Кбит/сек
Каналы : 2 канала
Расположение каналов : Front: L R
Частота : 48,0 КГц
Битовая глубина : 16 бит
Метод сжатия : С потерями
Размер потока : 115 Мбайт (1%)
Заголовок : AC3 2.0 @ 192 kbps - Одноголосый закадровый, Л.Володарский
Язык : Russian
Default : Нет
Forced : Нет
Аудио #7
Идентификатор : 8
Формат : AC-3
Формат/Информация : Audio Coding 3
Расширение режима : CM (complete main)
Параметр Endianness формата : Big
Идентификатор кодека : A_AC3
Продолжительность : 1 ч. 23 м.
Вид битрейта : Постоянный
Битрейт : 192 Кбит/сек
Каналы : 1 канал
Расположение каналов : Front: C
Частота : 48,0 КГц
Битовая глубина : 16 бит
Метод сжатия : С потерями
Размер потока : 115 Мбайт (1%)
Заголовок : AC3 2.0 @ 192 kbps - Одноголосый закадровый, Wizard
Язык : Russian
Default : Нет
Forced : Нет
Аудио #8
Идентификатор : 9
Формат : AC-3
Формат/Информация : Audio Coding 3
Расширение режима : CM (complete main)
Параметр Endianness формата : Big
Идентификатор кодека : A_AC3
Продолжительность : 1 ч. 23 м.
Вид битрейта : Постоянный
Битрейт : 192 Кбит/сек
Каналы : 2 канала
Расположение каналов : Front: L R
Частота : 48,0 КГц
Битовая глубина : 16 бит
Метод сжатия : С потерями
Размер потока : 115 Мбайт (1%)
Заголовок : AC3 2.0 @ 192 kbps - Многоголосый закадровый, 1+1
Язык : Ukrainian
Default : Нет
Forced : Нет
Аудио #9
Идентификатор : 10
Формат : DTS
Формат/Информация : Digital Theater Systems
Режим : 16
Параметр Endianness формата : Big
Идентификатор кодека : A_DTS
Продолжительность : 1 ч. 23 м.
Вид битрейта : Постоянный
Битрейт : 768 Кбит/сек
Каналы : 1 канал
Расположение каналов : Front: C
Частота : 48,0 КГц
Битовая глубина : 24 бит
Метод сжатия : С потерями
Размер потока : 461 Мбайт (5%)
Заголовок : DTS 1.0 @ 768 kbps
Язык : English
Default : Нет
Forced : Нет
Текст
Идентификатор : 11
Формат : UTF-8
Идентификатор кодека : S_TEXT/UTF8
Идентификатор кодека/Информация : UTF-8 Plain Text
Язык : English
Default : Нет
Forced : Нет
Меню
00:00:00.000 : en:00:00:00.000
00:04:27.893 : en:00:04:27.893
00:06:34.728 : en:00:06:34.728
00:11:29.606 : en:00:11:29.606
00:14:56.646 : en:00:14:56.646
00:18:09.964 : en:00:18:09.964
00:20:14.713 : en:00:20:14.713
00:22:20.965 : en:00:22:20.965
00:24:48.445 : en:00:24:48.445
00:29:41.780 : en:00:29:41.780
00:32:51.595 : en:00:32:51.595
00:36:16.049 : en:00:36:16.049
00:39:49.012 : en:00:39:49.012
00:43:02.663 : en:00:43:02.663
00:46:45.553 : en:00:46:45.553
00:50:02.082 : en:00:50:02.082
00:54:15.085 : en:00:54:15.085
00:56:26.925 : en:00:56:26.925
01:04:36.664 : en:01:04:36.664
01:08:44.203 : en:01:08:44.203
01:15:37.658 : en:01:15:37.658
01:20:52.222 : en:01:20:52.222

-
Цитата:

*** Сохранены оригинальные чаптеры как на Blu-ray.
*** За приобретение дисковых материалов большое спасибо crazy_gringo.
*** Работа со звуком - Volshebnik.
-
[Profile]  [PM] 
Display posts:    
Reply to topic

Current time is: 04-Dec 00:42

All times are UTC + 2



You cannot post new topics in this forum
You cannot reply to topics in this forum
You cannot edit your posts in this forum
You cannot delete your posts in this forum
You cannot vote in polls in this forum
You cannot attach files in this forum
You cannot download files in this forum