Проект X: Дорвались / Project X (Нима Нуризаде / Nima Nourizadeh) [2012, США, комедия, BDRip 720p] [Theatrical Cut] Dub + Original Eng + Sub Rus, Eng

Reply to topic
 
Author
Message

Faust ®

Gender: Unknown

Longevity: 10 years

Posts: 16609

Reputation: 0 [+] [-]

Faust · Post 26-May-2014 00:32

[Quote] 

Проект X: Дорвались / Project X- Страна: США
Жанр: комедия
Год выпуска: 2012
Продолжительность: 01:27:53
Перевод: Профессиональный (дублированный)
Cубтитры: русские, английские
Оригинальная аудиодорожка: английский-Режиссер: Нима Нуризаде / Nima Nourizadeh
В ролях: Томас Манн, Оливер Купер, Джонатан Даниэль Браун, Дакс Флэйм, Кирби Блисс Блэнтон, Брэйди Эндер, Ник Нервис, Алексис Кнапп, Майлз Теллер, Питер Маккензи.
Описание: Три школьных друга слегка обделены вниманием окружающих и являются классическими лузерами, кроме Косты. Но желание доказать всем что они не совсем отстой у парней очень сильное и в один вечер они решают закатить дома грандиозную школьную вечеринку. Да и повод подвернулся как нельзя кстати, у Томаса намечается День рождения, а его родители как раз уезжают на эти выходные из города. Коста умудряется рассказать о готовящемся мероприятии всем знакомым, в итоге собирается огромная куча народа, даже выпускники прошлых лет. Ребята радуются своему успеху, они наконец-то смогли оказаться в центре внимания своих одноклассников и более крутых парней. На вечеринке выпивка льётся рекой, молодые девушки отрываются на полную — это просто рай для семнадцатилетних парней. Но вот что им преподнесёт следующее утро и стоило ли веселье того?-Качество: BDRip 720p | Формат: MKV
Видео: 1280x720 (16:9), 23.976 fps, x264@L4.1 ~ 6730 kbps avg
Аудио 1: Russian 48 kHz, AC3, 3/2 (L,C,R,l,r) + LFE ch, 640.00 kbps avg | BD CEE
Аудио 2: English 48 kHz, DTS, 3/2 (L,C,R,l,r) + LFE ch, 1509.00 kbps avg | Original
Формат субтитров: srt | Sample

Скриншоты

Медиаинфо

Общее
Формат : Matroska
Версия формата : Version 4 / Version 2
Размер файла : 5,45 Гбайт
Продолжительность : 1 ч. 27 м.
Общий поток : 8871 Кбит/сек
Название фильма : Project X 2012 Theatrical Cut
Дата кодирования : UTC 2014-03-14 16:28:10
Программа кодирования : mkvmerge v6.6.0 ('The Edge Of The In Between') built on Dec 1 2013 17:55:00
Библиотека кодирования : libebml v1.3.0 + libmatroska v1.4.1
Видео
Идентификатор : 1
Формат : AVC
Формат/Информация : Advanced Video Codec
Профиль формата : High@L4.1
Параметр CABAC формата : Да
Параметр ReFrames формата : 9 кадров
Идентификатор кодека : V_MPEG4/ISO/AVC
Продолжительность : 1 ч. 27 м.
Битрейт : 6730 Кбит/сек
Ширина : 1280 пикселей
Высота : 720 пикселей
Соотношение сторон : 16:9
Режим частоты кадров : Постоянный
Частота кадров : 23,976 кадра/сек
Цветовое пространство : YUV
Субдискретизация насыщенности : 4:2:0
Битовая глубина : 8 бит
Тип развёртки : Прогрессивная
Бит/(Пиксели*Кадры) : 0.305
Размер потока : 4,02 Гбайт (74%)
Заголовок : BDRip 720p
Библиотека кодирования : x264 core 124 r2197 69a0443
Настройки программы : cabac=1 / ref=9 / deblock=1:-3:-3 / analyse=0x3:0x113 / me=umh / subme=11 / psy=1 / psy_rd=1.00:0.00 / mixed_ref=1 / me_range=32 / chroma_me=1 / trellis=2 / 8x8dct=1 / cqm=0 / deadzone=21,11 / fast_pskip=0 / chroma_qp_offset=-2 / threads=6 / sliced_threads=0 / nr=0 / decimate=1 / interlaced=0 / bluray_compat=0 / constrained_intra=0 / bframes=8 / b_pyramid=2 / b_adapt=2 / b_bias=0 / direct=3 / weightb=1 / open_gop=0 / weightp=2 / keyint=250 / keyint_min=24 / scenecut=40 / intra_refresh=0 / rc_lookahead=40 / rc=2pass / mbtree=0 / bitrate=6730 / ratetol=1.0 / qcomp=0.60 / qpmin=0 / qpmax=69 / qpstep=4 / cplxblur=20.0 / qblur=0.5 / vbv_maxrate=50000 / vbv_bufsize=50000 / nal_hrd=none / ip_ratio=1.40 / pb_ratio=1.30 / aq=1:1.00
Язык : English
Default : Да
Forced : Нет
Аудио #1
Идентификатор : 2
Формат : AC-3
Формат/Информация : Audio Coding 3
Расширение режима : CM (complete main)
Параметр Endianness формата : Big
Идентификатор кодека : A_AC3
Продолжительность : 1 ч. 27 м.
Вид битрейта : Постоянный
Битрейт : 640 Кбит/сек
Каналы : 6 каналов
Расположение каналов : Front: L C R, Side: L R, LFE
Частота : 48,0 КГц
Битовая глубина : 16 бит
Метод сжатия : С потерями
Размер потока : 402 Мбайт (7%)
Заголовок : BD CEE
Язык : Russian
Default : Да
Forced : Нет
Аудио #2
Идентификатор : 3
Формат : DTS
Формат/Информация : Digital Theater Systems
Режим : 16
Параметр Endianness формата : Big
Идентификатор кодека : A_DTS
Продолжительность : 1 ч. 27 м.
Вид битрейта : Постоянный
Битрейт : 1509 Кбит/сек
Каналы : 6 каналов
Расположение каналов : Front: L C R, Side: L R, LFE
Частота : 48,0 КГц
Битовая глубина : 24 бит
Метод сжатия : С потерями
Размер потока : 949 Мбайт (17%)
Заголовок : Origenal
Язык : English
Default : Нет
Forced : Нет
Текст #1
Идентификатор : 4
Формат : UTF-8
Идентификатор кодека : S_TEXT/UTF8
Идентификатор кодека/Информация : UTF-8 Plain Text
Заголовок : Forced
Язык : Russian
Default : Да
Forced : Нет
Текст #2
Идентификатор : 5
Формат : UTF-8
Идентификатор кодека : S_TEXT/UTF8
Идентификатор кодека/Информация : UTF-8 Plain Text
Заголовок : Full
Язык : Russian
Default : Нет
Forced : Нет
Текст #3
Идентификатор : 6
Формат : UTF-8
Идентификатор кодека : S_TEXT/UTF8
Идентификатор кодека/Информация : UTF-8 Plain Text
Заголовок : Full SDH
Язык : English
Default : Нет
Forced : Нет
Меню
00:00:00.000 : en:00:00:00.000
00:10:34.425 : en:00:10:34.425
00:19:53.776 : en:00:19:53.776
00:30:14.062 : en:00:30:14.062
00:40:10.950 : en:00:40:10.950
00:51:16.240 : en:00:51:16.240
01:00:56.403 : en:01:00:56.403
01:11:22.320 : en:01:11:22.320
01:19:29.765 : en:01:19:29.765
[Profile]  [PM] 
Display posts:    
Reply to topic

Current time is: 04-Dec 01:07

All times are UTC + 2



You cannot post new topics in this forum
You cannot reply to topics in this forum
You cannot edit your posts in this forum
You cannot delete your posts in this forum
You cannot vote in polls in this forum
You cannot attach files in this forum
You cannot download files in this forum