Перси Джексон и похититель молний / Percy Jackson & the Olympians: The Lightning Thief (Крис Коламбус / Chris Columbus) [2010, США, Фэнтези, Приключения, Семейный, HDTV 1080i] MVO (1 канал)

Reply to topic
 
Author
Message

Faust ®

Gender: Unknown

Longevity: 10 years

Posts: 16609

Reputation: 0 [+] [-]

Faust · Post 31-May-2014 00:25

[Quote] 

Перси Джексон и похититель молний / Percy Jackson & the Olympians: The Lightning Thief
Страна: США
Жанр: Фэнтези, Приключения, Семейный
Год выпуска: 2010
Продолжительность: 01:49:20
Перевод: Профессиональный (многоголосый закадровый) 1 канал
Cубтитры: нет
Оригинальная аудиодорожка: нет
Режиссер: Крис Коламбус / Chris Columbus
В ролях: Логан Лерман, Брэндон Т. Джексон, Александра Даддарио, Джейк Эйбел, Шон Бин, Пирс Броснан, Стив Куган, Розарио Доусон, Мелина Канакаридис, Кэтрин Кинери и др.
Описание: Главный персонаж — мальчик, узнавший, что его отец — греческий бог. В сопровождении сатира и дочери Афины он отправляется в опасное путешествие, чтобы примирить богов.
Доп.информация: HDTV и BD имеют разное наполнение кадра http://screenshotcomparison.com/comparison/76629
Сэмпл: http://yadi.sk/d/eRhNT6BaRZbVv
Качество видео: HDTV 1080i
Формат видео: TS
Видео: AVC, 1920x1080 (16/9), 25.000 fps, 12.2 Mbps (0.235 bit/pixel)
Аудио: MP2, 48.0 KHz, 2 ch, 192 Kbps, CBR (Russian)

MediaInfo

Общее
Идентификатор : 3 (0x3)
Полное имя : K:\Перси Джексон и похититель молний.ts
Формат : MPEG-TS
Размер файла : 10,2 Гбайт
Продолжительность : 1 ч. 49 м.
Режим общего битрейта : Переменный
Общий поток : 13,3 Мбит/сек
Видео
Идентификатор : 2141 (0x85D)
Идентификатор меню : 21004 (0x520C)
Формат : AVC
Формат/Информация : Advanced Video Codec
Профиль формата : Main@L4.0
Параметр CABAC формата : Да
Параметр ReFrames формата : 3 кадра
Идентификатор кодека : 27
Продолжительность : 1 ч. 49 м.
Битрейт : 12,5 Мбит/сек
Ширина : 1920 пикселей
Высота : 1080 пикселей
Соотношение сторон : 16:9
Частота кадров : 25,000 кадров/сек
Стандарт вещания : Component
Цветовое пространство : YUV
Субдискретизация насыщенности : 4:2:0
Битовая глубина : 8 бит
Тип развёртки : Чересстрочная
Порядок развёртки : Верхнее поле первое
Бит/(Пиксели*Кадры) : 0.240
Размер потока : 9,51 Гбайт (94%)
Основные цвета : BT.709
Характеристики трансфера : BT.709
Коэффициенты матрицы : BT.709
Аудио
Идентификатор : 2142 (0x85E)
Идентификатор меню : 21004 (0x520C)
Формат : MPEG Audio
Версия формата : Version 1
Профиль формата : Layer 2
Идентификатор кодека : 4
Продолжительность : 1 ч. 49 м.
Вид битрейта : Постоянный
Битрейт : 192 Кбит/сек
Каналы : 2 канала
Частота : 48,0 КГц
Метод сжатия : С потерями
Задержка видео : -2 мс.
Размер потока : 150 Мбайт (1%)
Язык : Russian

Скриншоты

[Profile]  [PM] 
Display posts:    
Reply to topic

Current time is: 04-Dec 01:22

All times are UTC + 2



You cannot post new topics in this forum
You cannot reply to topics in this forum
You cannot edit your posts in this forum
You cannot delete your posts in this forum
You cannot vote in polls in this forum
You cannot attach files in this forum
You cannot download files in this forum