Пивной фестиваль / Пивной бум / Beerfest (Джей Чандрашекхар / Jay Chandrasekhar) [2006, США, Австралия, комедия, BDRip 720p] [Unrated] 2х DVO + VO (Котов) + Sub Eng + Original Eng

Reply to topic
 
Author
Message

Faust ®

Gender: Unknown

Longevity: 10 years

Posts: 16609

Reputation: 0 [+] [-]

Faust · Post 06-Jun-2014 00:20

[Quote] 

Пивной фестиваль / Пивной бум / Beerfest (Unrated)
Страна: США, Австралия
Студия: Warner Bros. Pictures и др.
Жанр: комедия
Год выпуска: 2006
Продолжительность: 01:56:27
Перевод: Профессиональный (двухголосый закадровый)
Перевод 2: Профессиональный (двухголосый закадровый) ТВ-3
Перевод 3: Одноголосый закадровый В. Котов
Cубтитры: английские
Оригинальная аудиодорожка: английский
Режиссер: Джей Чандрашекхар / Jay Chandrasekhar
В ролях: М.С. Гейни, Пол Сотер, Эрик Столханске, Клорис Личмен, Юрген Прохнов, Овайн Йомэн, Том Тейт, Аллан Граф, Кристофер Мосс
Описание: Американцы Тодд и Ян Вулфхаус приезжают в Германию на ежегодный фестиваль пива «Октоберфест» чтобы развеять здесь прах своего дедушки. Здесь они случайно попадают на супер-секретные пивные игры, этакие олимпийские игры по распитию пенного напитка. Братьев подчистую обыгрывают, напоив их до бессознательного состояния. Но ребята обещают вернуться через год, чтобы взять реванш. У себя на родине они собирают команду любителей пива, состоящую из заядлых выпивох. Сильная печень и воля к победе — это все что надо, чтобы выиграть пивные игры…
Доп. информация: За рип спасибо vikosol. В обоих двухголосых переводах сделаны вставки с озвучкой Вячеслава Котова на отсутствующие в театральной версии места. В семпле представлен участок с переходом озвучки Котова на двухголоску.

Sample
Тип релиза: BDRip 720p
Контейнер: MKV
Видео: MPEG4 AVC Video, H264, 2.40:1, 16:9, 1280x528, 23,976 fps, 6061 kbps
Аудио: Russian (AC3, 6 ch, 448 kbps, 16 bits, 48.0 KHz) - DVO
Аудио 2: Russian (AC3, 2 ch, 192 kbps, 16 bits, 48.0 KHz) - ТВ-3
Аудио 3: Russian (AC3, 6 ch, 384 kbps, 16 bits, 48.0 KHz) - В. Котов
Аудио 4: English (AC3, 6 ch, 640 kbps, 16 bits, 48.0 KHz) - оригинал
Формат субтитров: softsub (SRT)

MediaInfo

x264

x264 [info]: frame I:1808 Avg QP:17.04 size:122643
x264 [info]: frame P:36096 Avg QP:18.33 size: 55909
x264 [info]: frame B:129628 Avg QP:20.12 size: 24596
x264 [info]: consecutive B-frames: 1.7% 1.5% 7.3% 27.2% 22.9% 32.4% 3.9% 1.5% 0.7% 0.8%
General
Unique ID : 200965477155154145226826896615728348318 (0x97308B03A0EBE5368C8B1C42B75DFC9E)
Complete name : E:\1\Пивной бум\Beerfest.2006.x264.BDRip 720p.mkv
Format : Matroska
Format version : Version 4 / Version 2
File size : 6.41 GiB
Duration : 1h 56mn
Overall bit rate : 7 882 Kbps
Encoded date : UTC 2014-06-04 05:31:30
Writing application : mkvmerge v6.1.0 ('Old Devil') built on Mar 2 2013 14:32:37
Writing library : libebml v1.3.0 + libmatroska v1.4.0
Video
ID : 1
Format : AVC
Format/Info : Advanced Video Codec
Format profile : High@L4.1
Format settings, CABAC : Yes
Format settings, ReFrames : 9 frames
Codec ID : V_MPEG4/ISO/AVC
Duration : 1h 56mn
Bit rate : 6 061 Kbps
Width : 1 280 pixels
Height : 528 pixels
Display aspect ratio : 2.40:1
Frame rate mode : Constant
Frame rate : 23.976 fps
Color space : YUV
Chroma subsampling : 4:2:0
Bit depth : 8 bits
Scan type : Progressive
Bits/(Pixel*Frame) : 0.374
Stream size : 4.93 GiB (77%)
Writing library : x264 core 142 r2431+42 c69a006 tMod [8-bit@all X86_64]
Encoding settings : cabac=1 / ref=9 / deblock=1:-3:-3 / analyse=0x3:0x113 / me=umh / subme=11 / psy=1 / fade_compensate=0.00 / psy_rd=1.00:0.05 / mixed_ref=1 / me_range=32 / chroma_me=1 / trellis=2 / 8x8dct=1 / cqm=0 / deadzone=21,11 / fast_pskip=0 / chroma_qp_offset=-3 / threads=6 / lookahead_threads=1 / sliced_threads=0 / nr=0 / decimate=0 / interlaced=0 / bluray_compat=0 / constrained_intra=0 / fgo=0 / bframes=9 / b_pyramid=2 / b_adapt=2 / b_bias=0 / direct=1 / weightb=1 / open_gop=0 / weightp=2 / keyint=240 / keyint_min=23 / scenecut=40 / intra_refresh=0 / rc=crf / mbtree=0 / crf=17.5000 / qcomp=0.70 / qpmin=0:0:0 / qpmax=69:69:69 / qpstep=4 / ip_ratio=1.40 / pb_ratio=1.30 / aq=2:0.90 / aq-sensitivity=10.00 / aq-factor=1.00:1.00:1.00 / aq2=0 / aq3=0
Language : English
Default : Yes
Forced : No
Audio #1
ID : 2
Format : AC-3
Format/Info : Audio Coding 3
Mode extension : CM (complete main)
Format settings, Endianness : Big
Codec ID : A_AC3
Duration : 1h 56mn
Bit rate mode : Constant
Bit rate : 448 Kbps
Channel count : 6 channels
Channel positions : Front: L C R, Side: L R, LFE
Sampling rate : 48.0 KHz
Bit depth : 16 bits
Compression mode : Lossy
Stream size : 373 MiB (6%)
Language : Russian
Default : Yes
Forced : No
Audio #2
ID : 3
Format : AC-3
Format/Info : Audio Coding 3
Mode extension : CM (complete main)
Format settings, Endianness : Big
Codec ID : A_AC3
Duration : 1h 56mn
Bit rate mode : Constant
Bit rate : 192 Kbps
Channel count : 2 channels
Channel positions : Front: L R
Sampling rate : 48.0 KHz
Bit depth : 16 bits
Compression mode : Lossy
Stream size : 160 MiB (2%)
Title : ТВ-3
Language : Russian
Default : No
Forced : No
Audio #3
ID : 4
Format : AC-3
Format/Info : Audio Coding 3
Mode extension : CM (complete main)
Format settings, Endianness : Big
Codec ID : A_AC3
Duration : 1h 56mn
Bit rate mode : Constant
Bit rate : 384 Kbps
Channel count : 6 channels
Channel positions : Front: L C R, Side: L R, LFE
Sampling rate : 48.0 KHz
Bit depth : 16 bits
Compression mode : Lossy
Stream size : 320 MiB (5%)
Title : В.Котов
Language : Russian
Default : No
Forced : No
Audio #4
ID : 5
Format : AC-3
Format/Info : Audio Coding 3
Mode extension : CM (complete main)
Format settings, Endianness : Big
Codec ID : A_AC3
Duration : 1h 56mn
Bit rate mode : Constant
Bit rate : 640 Kbps
Channel count : 6 channels
Channel positions : Front: L C R, Side: L R, LFE
Sampling rate : 48.0 KHz
Bit depth : 16 bits
Compression mode : Lossy
Stream size : 533 MiB (8%)
Language : English
Default : No
Forced : No
Text
ID : 6
Format : UTF-8
Codec ID : S_TEXT/UTF8
Codec ID/Info : UTF-8 Plain Text
Language : English
Default : No
Forced : No
Menu
00:00:00.000 : en:Chapter 01
00:02:58.344 : en:Chapter 02
00:06:13.373 : en:Chapter 03
00:07:54.974 : en:Chapter 04
00:12:29.915 : en:Chapter 05
00:15:50.449 : en:Chapter 06
00:19:22.161 : en:Chapter 07
00:24:23.795 : en:Chapter 08
00:33:48.026 : en:Chapter 09
00:39:00.504 : en:Chapter 10
00:40:36.434 : en:Chapter 11
00:43:05.082 : en:Chapter 12
00:44:33.671 : en:Chapter 13
00:48:25.736 : en:Chapter 14
00:51:59.449 : en:Chapter 15
00:54:22.092 : en:Chapter 16
00:59:12.382 : en:Chapter 17
01:04:35.204 : en:Chapter 18
01:06:49.005 : en:Chapter 19
01:12:45.861 : en:Chapter 20
01:15:51.046 : en:Chapter 21
01:20:20.982 : en:Chapter 22
01:23:35.677 : en:Chapter 23
01:28:33.474 : en:Chapter 24
01:34:17.652 : en:Chapter 25
01:36:07.428 : en:Chapter 26
01:39:08.776 : en:Chapter 27
01:39:40.641 : en:Chapter 28
01:40:43.704 : en:Chapter 29
01:45:37.831 : en:Chapter 30
01:50:04.598 : en:Chapter 31

Скриншоты

[Profile]  [PM] 
Display posts:    
Reply to topic

Current time is: 04-Dec 00:49

All times are UTC + 2



You cannot post new topics in this forum
You cannot reply to topics in this forum
You cannot edit your posts in this forum
You cannot delete your posts in this forum
You cannot vote in polls in this forum
You cannot attach files in this forum
You cannot download files in this forum