Конец одиночества фермы Берхоф / Конец хутора Берхоф / Zánik samoty Berhof (Иржи Свобода / Jirí Svoboda) [1983, Чехословакия, драма, HDTVRip 720p] VO (Andi) + Sub Rus, Eng + Original Cze

Reply to topic
 
Author
Message

Faust ®

Gender: Unknown

Longevity: 10 years

Posts: 16609

Reputation: 0 [+] [-]

Faust · Post 07-Jun-2014 00:55

[Quote] 

Конец одиночества фермы Берхоф / Конец хутора Берхоф / Zánik samoty Berhof
Страна: Чехословакия
Жанр: драма
Год выпуска: 1983
Продолжительность: 01:37:50
Перевод: Одноголосый закадровый (Andi)
Cубтитры: русские (DIDO123A), английские
Оригинальная аудиодорожка: чешский
Режиссер: Иржи Свобода / Jirí Svoboda
В ролях: Яна Брейхова, Радослав Брзобогаты, Милан Князко, Любомир Костелка, Ладислав Крживачек, Мирослав Махачек, Ежи Новак, Viteszlav Pohanka, Эвелина Штеймарова, Petra Vancíková
Описание: Первое послевоенное лето в чешско-немецко-польском приграничье. Жители хутора Бергоф становятся заложниками боевиков группы «Вервольф», не смирившихся с поражением Германии. Монашка Саломэ приносит в уединенный хутор всё, что угодно, только не ожидаемое от нее милосердие. Совершенно противоположным Саломэ является чехословацкий лейтенант, который упорно пытается восстановить порядок в округе.
Сэмпл: http://multi-up.com/978634

Тип релиза: HDTVRip 720p (thnx DON)
Контейнер: MKV
Видео: H.264/AVC, 986x720, 1.37:1, 25.00fps, 5947kbps
Аудио: Russian, AC3 2.0, 192kbps, 48 kHz
Аудио 2: Czech, AC3 2.0, 448kbps, 48 kHz
Формат субтитров: softsub (SRT)

MediaInfo

Complete name : V:\=Video=\Films\чехословакия\Zanik.samoty.Berhof.1983.720p.HDTV.x264-DON\Конец.хутора.Берхоф.1983.720p.HDTV.Rus.Cze.mkv
Format : Matroska
Format version : Version 2
File size : 4.50 GiB
Duration : 1h 37mn
Overall bit rate : 6 589 Kbps
Movie name : Zanik samoty Berhof (1983)
Encoded date : UTC 2014-06-06 09:09:45
Writing application : mkvmerge v5.8.0 ('No Sleep / Pillow') built on Sep 2 2012 15:37:04
Writing library : libebml v1.2.3 + libmatroska v1.3.0
Video
ID : 1
Format : AVC
Format/Info : Advanced Video Codec
Format profile : High@L4.1
Format settings, CABAC : Yes
Format settings, ReFrames : 11 frames
Codec ID : V_MPEG4/ISO/AVC
Duration : 1h 37mn
Bit rate : 5 947 Kbps
Width : 986 pixels
Height : 720 pixels
Display aspect ratio : 4:3
Frame rate mode : Constant
Frame rate : 25.000 fps
Color space : YUV
Chroma subsampling : 4:2:0
Bit depth : 8 bits
Scan type : Progressive
Bits/(Pixel*Frame) : 0.335
Stream size : 3.98 GiB (88%)
Writing library : x264 core 138 r2358 9e941d1
Encoding settings : cabac=1 / ref=11 / deblock=1:-3:-3 / analyse=0x3:0x133 / me=tesa / subme=10 / psy=1 / psy_rd=1.10:0.00 / mixed_ref=1 / me_range=24 / chroma_me=1 / trellis=2 / 8x8dct=1 / cqm=0 / deadzone=21,11 / fast_pskip=0 / chroma_qp_offset=-2 / threads=12 / lookahead_threads=2 / sliced_threads=0 / nr=0 / decimate=0 / interlaced=0 / bluray_compat=0 / constrained_intra=0 / bframes=8 / b_pyramid=2 / b_adapt=2 / b_bias=0 / direct=3 / weightb=1 / open_gop=0 / weightp=2 / keyint=250 / keyint_min=25 / scenecut=40 / intra_refresh=0 / rc_lookahead=60 / rc=2pass / mbtree=0 / bitrate=5947 / ratetol=1.0 / qcomp=0.70 / qpmin=0 / qpmax=69 / qpstep=4 / cplxblur=20.0 / qblur=0.5 / vbv_maxrate=62500 / vbv_bufsize=78125 / nal_hrd=none / ip_ratio=1.30 / pb_ratio=1.20 / aq=1:0.70
Language : Czech
Default : Yes
Forced : No
Audio #1
ID : 2
Format : AC-3
Format/Info : Audio Coding 3
Mode extension : CM (complete main)
Format settings, Endianness : Big
Codec ID : A_AC3
Duration : 1h 37mn
Bit rate mode : Constant
Bit rate : 192 Kbps
Channel(s) : 2 channels
Channel positions : Front: L R
Sampling rate : 48.0 KHz
Bit depth : 16 bits
Compression mode : Lossy
Stream size : 134 MiB (3%)
Title : VO, [Andi]
Language : Russian
Default : Yes
Forced : No
Audio #2
ID : 3
Format : AC-3
Format/Info : Audio Coding 3
Mode extension : CM (complete main)
Format settings, Endianness : Big
Codec ID : A_AC3
Duration : 1h 37mn
Bit rate mode : Constant
Bit rate : 448 Kbps
Channel(s) : 2 channels
Channel positions : Front: L R
Sampling rate : 48.0 KHz
Bit depth : 16 bits
Compression mode : Lossy
Stream size : 314 MiB (7%)
Language : Czech
Default : No
Forced : No
Text #1
ID : 4
Format : UTF-8
Codec ID : S_TEXT/UTF8
Codec ID/Info : UTF-8 Plain Text
Title : (DIDO123A)
Language : Russian
Default : No
Forced : No
Text #2
ID : 5
Format : UTF-8
Codec ID : S_TEXT/UTF8
Codec ID/Info : UTF-8 Plain Text
Language : English
Default : No
Forced : No

Скриншоты

[Profile]  [PM] 
Display posts:    
Reply to topic

Current time is: 03-Dec 23:39

All times are UTC + 2



You cannot post new topics in this forum
You cannot reply to topics in this forum
You cannot edit your posts in this forum
You cannot delete your posts in this forum
You cannot vote in polls in this forum
You cannot attach files in this forum
You cannot download files in this forum