Стыд / Shame (Стив МакКуин / Steve McQueen) [2011, Великобритания, драма, BDRip 1080p] Dub + AVO (Сербин) + Original Eng + Sub Rus, Eng

Reply to topic
 
Author
Message

Faust ®

Gender: Unknown

Longevity: 10 years

Posts: 16609

Reputation: 0 [+] [-]

Faust · Post 07-Jun-2014 00:55

[Quote] 

Стыд / Shame- Страна: Великобритания
Жанр: драма
Год выпуска: 2011
Продолжительность: 01:41:08
Перевод:
  • Профессиональный (дублированный) Blu-ray
  • Авторский (одноголосый закадровый) Сербин
Cубтитры: русские, английские
Оригинальная аудиодорожка: английский-Режиссер: Стив МакКуин / Steve McQueen
В ролях: Майкл Фассбендер, Кэри Маллиган, Джеймс Бэдж Дэйл, Николь Бихэйр, Алекс Манетт, Люсиль Уолтерс, Мари-Анхе Рамирес, Ханна Уэр, Элизабет Масуччи, Рэйчел Фаррар.
Описание: Главный герой картины, по имени Брэндон, — ухоженный, элегантный и успешный сотрудник нью-йоркского рекламного агентства, у которого есть лишь одна неутолимая страсть. Эротоман Брэндон одержим сексом во всех его проявлениях: он — завсегдатай порно-сайтов, пип-шоу и, при этом — удивительно успешный соблазнитель, перед сексуальным обаянием которого не в состоянии устоять не одна прекрасная девушка. Где же скрывается изъян в этом исключительном представителе сильного пола?! Внутренний мир Брэндона детонирует после того, как в роскошных холостяцких апартаментах неутомимого сексоголика неожиданно поселяется его родная сестра Сисси...-Тип релиза: BDRip 1080p
Контейнер: MKV | Sample
Видео: 1920x814 (2.35:1), 23.976 fps, x264@L4.1 ~9257 kbps avg
Аудио 1: Russian 48 kHz, AC3, 3/2 (L,C,R,l,r) + LFE ch, 640.00 kbps avg | Blu-ray
Аудио 2: Russian 48 kHz, DTS, 3/2 (L,C,R,l,r) + LFE ch, 1509.00 kbps avg | Сербин
Аудио 3: English 48 kHz, DTS, 3/2 (L,C,R,l,r) + LFE ch, 1509.00 kbps avg | Original

Скриншоты

Медиаинфо

Общее
Формат : Matroska
Версия формата : Version 4 / Version 2
Размер файла : 9,11 Гбайт
Продолжительность : 1 ч. 41 м.
Общий поток : 12,9 Мбит/сек
Название фильма : Shame 2011
Дата кодирования : UTC 2014-06-05 18:22:41
Программа кодирования : mkvmerge v6.1.0 ('Old Devil') built on Mar 4 2013 09:10:42
Библиотека кодирования : libebml v1.3.0 + libmatroska v1.4.0
Видео
Идентификатор : 1
Формат : AVC
Формат/Информация : Advanced Video Codec
Профиль формата : High@L4.1
Параметр CABAC формата : Да
Параметр ReFrames формата : 5 кадров
Идентификатор кодека : V_MPEG4/ISO/AVC
Продолжительность : 1 ч. 41 м.
Битрейт : 9257 Кбит/сек
Ширина : 1920 пикселей
Высота : 814 пикселей
Соотношение сторон : 2,35:1
Режим частоты кадров : Постоянный
Частота кадров : 23,976 кадра/сек
Цветовое пространство : YUV
Субдискретизация насыщенности : 4:2:0
Битовая глубина : 8 бит
Тип развёртки : Прогрессивная
Бит/(Пиксели*Кадры) : 0.247
Размер потока : 6,35 Гбайт (70%)
Заголовок : BDRip 1080p
Библиотека кодирования : x264 core 138 r2358 9e941d1
Настройки программы : cabac=1 / ref=5 / deblock=1:-3:-3 / analyse=0x3:0x133 / me=umh / subme=11 / psy=1 / psy_rd=1.00:0.00 / mixed_ref=1 / me_range=32 / chroma_me=1 / trellis=2 / 8x8dct=1 / cqm=0 / deadzone=21,11 / fast_pskip=0 / chroma_qp_offset=-2 / threads=12 / lookahead_threads=1 / sliced_threads=0 / nr=0 / decimate=1 / interlaced=0 / bluray_compat=0 / constrained_intra=0 / bframes=6 / b_pyramid=2 / b_adapt=2 / b_bias=0 / direct=3 / weightb=1 / open_gop=0 / weightp=2 / keyint=240 / keyint_min=23 / scenecut=40 / intra_refresh=0 / rc=2pass / mbtree=0 / bitrate=9257 / ratetol=2.0 / qcomp=0.60 / qpmin=0 / qpmax=69 / qpstep=4 / cplxblur=20.0 / qblur=0.5 / ip_ratio=1.40 / pb_ratio=1.30 / aq=1:0.80
Язык : English
Default : Да
Forced : Нет
Аудио #1
Идентификатор : 2
Формат : AC-3
Формат/Информация : Audio Coding 3
Расширение режима : CM (complete main)
Параметр Endianness формата : Big
Идентификатор кодека : A_AC3
Продолжительность : 1 ч. 41 м.
Вид битрейта : Постоянный
Битрейт : 640 Кбит/сек
Каналы : 6 каналов
Расположение каналов : Front: L C R, Side: L R, LFE
Частота : 48,0 КГц
Битовая глубина : 16 бит
Метод сжатия : С потерями
Размер потока : 463 Мбайт (5%)
Заголовок : Blu-ray
Язык : Russian
Default : Да
Forced : Нет
Аудио #2
Идентификатор : 3
Формат : DTS
Формат/Информация : Digital Theater Systems
Режим : 16
Параметр Endianness формата : Big
Идентификатор кодека : A_DTS
Продолжительность : 1 ч. 41 м.
Вид битрейта : Постоянный
Битрейт : 1509 Кбит/сек
Каналы : 6 каналов
Расположение каналов : Front: L C R, Side: L R, LFE
Частота : 48,0 КГц
Битовая глубина : 24 бит
Метод сжатия : С потерями
Размер потока : 1,07 Гбайт (12%)
Заголовок : AVO Сербин
Язык : Russian
Default : Нет
Forced : Нет
Аудио #3
Идентификатор : 4
Формат : DTS
Формат/Информация : Digital Theater Systems
Режим : 16
Параметр Endianness формата : Big
Идентификатор кодека : A_DTS
Продолжительность : 1 ч. 41 м.
Вид битрейта : Постоянный
Битрейт : 1509 Кбит/сек
Каналы : 6 каналов
Расположение каналов : Front: L C R, Side: L R, LFE
Частота : 48,0 КГц
Битовая глубина : 24 бит
Метод сжатия : С потерями
Размер потока : 1,07 Гбайт (12%)
Заголовок : Original
Язык : English
Default : Нет
Forced : Нет
Текст #1
Идентификатор : 5
Формат : UTF-8
Идентификатор кодека : S_TEXT/UTF8
Идентификатор кодека/Информация : UTF-8 Plain Text
Заголовок : ak79
Язык : Russian
Default : Нет
Forced : Нет
Текст #2
Идентификатор : 6
Формат : UTF-8
Идентификатор кодека : S_TEXT/UTF8
Идентификатор кодека/Информация : UTF-8 Plain Text
Заголовок : Serene+dub
Язык : Russian
Default : Нет
Forced : Нет
Текст #3
Идентификатор : 7
Формат : UTF-8
Идентификатор кодека : S_TEXT/UTF8
Идентификатор кодека/Информация : UTF-8 Plain Text
Заголовок : Full
Язык : English
Default : Нет
Forced : Нет
Меню
00:00:00.000 : :Chapter 01
00:09:10.215 : :Chapter 02
00:11:11.420 : :Chapter 03
00:12:51.020 : :Chapter 04
00:18:38.534 : :Chapter 05
00:22:56.083 : :Chapter 06
00:24:57.704 : :Chapter 07
00:26:25.792 : :Chapter 08
00:28:57.193 : :Chapter 09
00:34:04.083 : :Chapter 10
00:37:18.152 : :Chapter 11
00:42:53.487 : :Chapter 12
00:46:00.132 : :Chapter 13
00:53:37.297 : :Chapter 14
00:56:35.225 : :Chapter 15
01:00:27.957 : :Chapter 16
01:08:03.829 : :Chapter 17
01:09:49.560 : :Chapter 18
01:16:04.977 : :Chapter 19
01:22:47.587 : :Chapter 20
01:26:36.232 : :Chapter 21
01:31:31.277 : :Chapter 22
01:34:37.296 : :Chapter 23
01:36:23.778 : :Chapter 24

Дополнительно

Автор видео envy
[Profile]  [PM] 
Display posts:    
Reply to topic

Current time is: 04-Dec 00:01

All times are UTC + 2



You cannot post new topics in this forum
You cannot reply to topics in this forum
You cannot edit your posts in this forum
You cannot delete your posts in this forum
You cannot vote in polls in this forum
You cannot attach files in this forum
You cannot download files in this forum