Ниндзя серферы / Surf Ninjas (Нил Израэл / Neal Israel) [1993, США, комедия, приключения, семейный, HDTV 1080i] MVO + 3x AVO (Живов, Горчаков, Дохалов) + Original Eng

Reply to topic
 
Author
Message

Faust ®

Gender: Unknown

Longevity: 10 years

Posts: 16609

Reputation: 0 [+] [-]

Faust · Post 18-Jun-2014 00:25

[Quote] 

Ниндзя серферы / Surf Ninjas
Страна: США
Студия: New Line Cinema
Жанр: комедия, приключения, семейный
Год выпуска: 1993
Продолжительность: 01:26:49
Перевод: Профессиональный (многоголосый закадровый)
Перевод 2: Авторский (одноголосый закадровый) Ю. Живов
Перевод 3: Авторский (одноголосый закадровый) В. Горчаков
Перевод 4: Авторский (одноголосый закадровый) В. Дохалов
Cубтитры: нет
Оригинальная аудиодорожка: английский
Режиссер: Нил Израэл /Neal Israel
В ролях: Лесли Нильсен, Эрни Рейес ст., Эрни Рейес мл., Николас Кауэн, Джон Карлен, Роб Шнайдер, Оливер Миллс, Джонатан Шмок, Нил Израэл, Владимир Парра, Брэндон Каррер
Описание: Два наследных принца, отец которых был королем маленького мирного государства Патусан, живут в современной Америке и увлекаются серфингом. Злой полковник Чи, совершивший переворот, не может спать спокойно пока не убъет их. Ведь предание гласит: когда старшему принцу исполнится шестнадцать, в Патусан вернется свобода. А защитить детей могут только морской пехотинец Мак, воспитавший их как отец, одноглазый ниндзя и они сами.

Sample
Тип релиза: HDTV 1080i
Контейнер: MKV
Видео: MPEG 2, 16:9, 1920x1080, 29,970 fps, 12,6 Mbps
Аудио: Russian (AC3, 2 ch, 192 kbps, 16 bits, 48.0 KHz) - MVO
Аудио 2: Russian (AC3, 2 ch, 192 kbps, 16 bits, 48.0 KHz) - Живов
Аудио 3: Russian (AC3, 2 ch, 192 kbps, 16 bits, 48.0 KHz) - Горчаков
Аудио 4: Russian (AC3, 2 ch, 192 kbps, 16 bits, 48.0 KHz) - Дохалов
Аудио 5: English (AC3, 6 ch, 448 kbps, 16 bits, 48.0 KHz) - оригинал

MediaInfo

Общее
Уникальный идентификатор : 239552933710574372191266923011100763374 (0xB43837822A13BDF3AA0D2A978D25E4EE)
Полное имя : L:\Surf Ninjas (1993) HDTV 1080i.mkv
Формат : Matroska
Версия формата : Version 4 / Version 2
Размер файла : 8,56 Гбайт
Продолжительность : 1 ч. 26 м.
Режим общего битрейта : Переменный
Общий поток : 14,1 Мбит/сек
Дата кодирования : UTC 2014-06-16 04:04:33
Программа кодирования : mkvmerge v6.1.0 ('Old Devil') built on Mar 2 2013 14:32:37
Библиотека кодирования : libebml v1.3.0 + libmatroska v1.4.0
Видео
Идентификатор : 1
Формат : MPEG Video
Версия формата : Version 2
Профиль формата : Main@High
Параметр BVOP формата : Нет
Параметр матрицы формата : По умолчанию
Идентификатор кодека : V_MPEG2
Идентификатор кодека/Информация : MPEG 1 or 2 Video
Вид битрейта : Переменный
Битрейт : 12,6 Мбит/сек
Максимальный битрейт : 18,0 Мбит/сек
Ширина : 1920 пикселей
Высота : 1080 пикселей
Соотношение сторон : 16:9
Режим частоты кадров : Переменный
Частота кадров в оригинале : 29,970 кадров/сек
Цветовое пространство : YUV
Субдискретизация насыщенности : 4:2:0
Битовая глубина : 8 бит
Тип развёртки : Чересстрочная
Порядок развёртки : Нижнее поле первое
Метод сжатия : С потерями
Временной код первого кадра : 00:00:00;00
Оригинал временного кода : Group of pictures header
Язык : English
Default : Да
Forced : Нет
Аудио #1
Идентификатор : 2
Формат : AC-3
Формат/Информация : Audio Coding 3
Расширение режима : CM (complete main)
Параметр Endianness формата : Big
Идентификатор кодека : A_AC3
Продолжительность : 1 ч. 26 м.
Вид битрейта : Постоянный
Битрейт : 192 Кбит/сек
Каналы : 2 канала
Расположение каналов : Front: L R
Частота : 48,0 КГц
Битовая глубина : 16 бит
Метод сжатия : С потерями
Размер потока : 119 Мбайт (1%)
Заголовок : Mvo
Язык : Russian
Default : Да
Forced : Нет
Аудио #2
Идентификатор : 3
Формат : AC-3
Формат/Информация : Audio Coding 3
Расширение режима : CM (complete main)
Параметр Endianness формата : Big
Идентификатор кодека : A_AC3
Продолжительность : 1 ч. 26 м.
Вид битрейта : Постоянный
Битрейт : 192 Кбит/сек
Каналы : 2 канала
Расположение каналов : Front: L R
Частота : 48,0 КГц
Битовая глубина : 16 бит
Метод сжатия : С потерями
Размер потока : 119 Мбайт (1%)
Заголовок : Живов
Язык : Russian
Default : Нет
Forced : Нет
Аудио #3
Идентификатор : 4
Формат : AC-3
Формат/Информация : Audio Coding 3
Расширение режима : CM (complete main)
Параметр Endianness формата : Big
Идентификатор кодека : A_AC3
Продолжительность : 1 ч. 26 м.
Вид битрейта : Постоянный
Битрейт : 192 Кбит/сек
Каналы : 2 канала
Расположение каналов : Front: L R
Частота : 48,0 КГц
Битовая глубина : 16 бит
Метод сжатия : С потерями
Размер потока : 119 Мбайт (1%)
Заголовок : Горчаков
Язык : Russian
Default : Нет
Forced : Нет
Аудио #4
Идентификатор : 5
Формат : AC-3
Формат/Информация : Audio Coding 3
Расширение режима : CM (complete main)
Параметр Endianness формата : Big
Идентификатор кодека : A_AC3
Продолжительность : 1 ч. 26 м.
Вид битрейта : Постоянный
Битрейт : 192 Кбит/сек
Каналы : 2 канала
Расположение каналов : Front: L R
Частота : 48,0 КГц
Битовая глубина : 16 бит
Метод сжатия : С потерями
Размер потока : 119 Мбайт (1%)
Заголовок : Дохалов
Язык : Russian
Default : Нет
Forced : Нет
Аудио #5
Идентификатор : 6
Формат : AC-3
Формат/Информация : Audio Coding 3
Расширение режима : CM (complete main)
Параметр Endianness формата : Big
Идентификатор кодека : A_AC3
Продолжительность : 1 ч. 26 м.
Вид битрейта : Постоянный
Битрейт : 448 Кбит/сек
Каналы : 6 каналов
Расположение каналов : Front: L C R, Side: L R, LFE
Частота : 48,0 КГц
Битовая глубина : 16 бит
Метод сжатия : С потерями
Размер потока : 278 Мбайт (3%)
Язык : English
Default : Нет
Forced : Нет

Скриншоты

[Profile]  [PM] 
Display posts:    
Reply to topic

Current time is: 04-Dec 00:44

All times are UTC + 2



You cannot post new topics in this forum
You cannot reply to topics in this forum
You cannot edit your posts in this forum
You cannot delete your posts in this forum
You cannot vote in polls in this forum
You cannot attach files in this forum
You cannot download files in this forum