Дорога в лес / Cesta do lesa (Томаш Ворел ст. / Tomáš Vorel st.) [2012, Чехия, романтическая комедия, HDTVRip 720p] VO (Kass) + Original Cze

Reply to topic
 
Author
Message

Faust ®

Gender: Unknown

Longevity: 10 years

Posts: 16609

Reputation: 0 [+] [-]

Faust · Post 24-Jun-2014 00:25

[Quote] 

Дорога в лес / Cesta do lesa
Страна: Чехия
Студия: Vorel Film
Жанр: романтическая комедия
Год выпуска: 2012
Продолжительность: 01:44:36
Перевод: Одноголосый закадровый (женский) Kass
Cубтитры: нет
Оригинальная аудиодорожка: чешский
Режиссер: Томаш Ворел ст. / Tomáš Vorel st.
В ролях: Томаш Ворел мл. / Tomáš Vorel ml., Анна Линхартова / Anna Linhartová, Томаш Ганак / Tomáš Hanák, Болек Поливка / Bolek Polívka, Ева Голубова / Eva Holubová , Иржи Шмицер / Jiří Schmitzer, Марие Штипкова / Marie Štípková, Милан Штейндлер / Milan Šteindler, Бара Шлезингер / Bara Schlesinger, Войта Вовесны / Vojta Vovesný, Давид Вавра / David Vávra, Томаш Ванек / Tomáš Vaněk, Вацлав Мархоул / Václav Marhoul, Радомил Ухлирж / Radomil Uhlíř, Михаэла Румпикова / Michaela Rumpíková, Иржи Грушка / Jiří Hruška
Описание: Недавняя горожанка, красавица Анина ведет яростную борьбу за каждое дерево и животное в лесу. Лесник Людвик, простой деревенский «валенок», стреляет и рубит все, что считает нужным. Наивность юной Анины, странности ее близких, и все связанные с этим проблемы ухитряются до дна всколыхнуть сонное существование деревеньки. Меняется жизнь – меняются и люди.
Фильм про мухомор как средство от всех болезней и проблем. А если всерьез, о том, что очень даже можно примирить разные, самые полярные точки зрения, и мирно уживаться. Было бы желание.
Очень веселый, добрый фильм, полный юмора и природы во всем ее разнообразии и красе.

Доп. информация: cпасибо edus67 за наводку,
спасибо Dr.Crane за русскую дорожку!
Сэмпл: http://multi-up.com/981526

Тип релиза: HDTVRip 720p
Контейнер: MKV
Видео: H.264/AVC, 1280x720, 1.78:1, 25.00fps, 5094kbps
Аудио: Русский, AC3 5.1, 448kbps, 48 kHz
Аудио 2: Чешский, AC3 2.0, 192kbps, 48 kHz

MediaInfo

Complete name : M:\=VIDEO=\Cesta.do.lesa.2012.720p.HDTVRip.rus.cze.mkv
Format : Matroska
Format version : Version 4 / Version 2
File size : 4.28 GiB
Duration : 1h 44mn
Overall bit rate : 5 851 Kbps
Movie name : Cesta do lesa (2012)
Encoded date : UTC 2014-06-20 19:43:49
Writing application : mkvmerge v7.0.0 ('Where We Going') 32bit built on Jun 9 2014 15:08:34
Writing library : libebml v1.3.0 + libmatroska v1.4.1
Video
ID : 1
Format : AVC
Format/Info : Advanced Video Codec
Format profile : High@L4.0
Format settings, CABAC : Yes
Format settings, ReFrames : 9 frames
Codec ID : V_MPEG4/ISO/AVC
Duration : 1h 44mn
Bit rate : 5 094 Kbps
Width : 1 280 pixels
Height : 720 pixels
Display aspect ratio : 16:9
Frame rate mode : Constant
Frame rate : 25.000 fps
Color space : YUV
Chroma subsampling : 4:2:0
Bit depth : 8 bits
Scan type : Progressive
Bits/(Pixel*Frame) : 0.221
Stream size : 3.72 GiB (87%)
Writing library : x264 core 142 r2431 ac76440
Encoding settings : cabac=1 / ref=9 / deblock=1:-3:-3 / analyse=0x3:0x133 / me=umh / subme=10 / psy=1 / psy_rd=1.05:0.00 / mixed_ref=1 / me_range=24 / chroma_me=1 / trellis=2 / 8x8dct=1 / cqm=0 / deadzone=21,11 / fast_pskip=1 / chroma_qp_offset=-2 / threads=6 / lookahead_threads=1 / sliced_threads=0 / nr=0 / decimate=0 / interlaced=0 / bluray_compat=0 / constrained_intra=0 / bframes=8 / b_pyramid=2 / b_adapt=2 / b_bias=0 / direct=3 / weightb=1 / open_gop=0 / weightp=2 / keyint=250 / keyint_min=25 / scenecut=40 / intra_refresh=0 / rc=crf / mbtree=0 / crf=17.5 / qcomp=0.70 / qpmin=0 / qpmax=69 / qpstep=4 / ip_ratio=1.40 / pb_ratio=1.30 / aq=1:1.00
Language : Czech
Default : Yes
Forced : No
Audio #1
ID : 2
Format : AC-3
Format/Info : Audio Coding 3
Mode extension : CM (complete main)
Format settings, Endianness : Big
Codec ID : A_AC3
Duration : 1h 44mn
Bit rate mode : Constant
Bit rate : 448 Kbps
Channel(s) : 6 channels
Channel positions : Front: L C R, Side: L R, LFE
Sampling rate : 48.0 KHz
Bit depth : 16 bits
Compression mode : Lossy
Stream size : 335 MiB (8%)
Title : VO (Kass)
Language : Russian
Default : Yes
Forced : No
Audio #2
ID : 3
Format : AC-3
Format/Info : Audio Coding 3
Mode extension : CM (complete main)
Format settings, Endianness : Big
Codec ID : A_AC3
Duration : 1h 44mn
Bit rate mode : Constant
Bit rate : 192 Kbps
Channel(s) : 2 channels
Channel positions : Front: L R
Sampling rate : 48.0 KHz
Bit depth : 16 bits
Compression mode : Lossy
Stream size : 144 MiB (3%)
Language : Czech
Default : No
Forced : No

Скриншоты

[Profile]  [PM] 
Display posts:    
Reply to topic

Current time is: 03-Dec 23:45

All times are UTC + 2



You cannot post new topics in this forum
You cannot reply to topics in this forum
You cannot edit your posts in this forum
You cannot delete your posts in this forum
You cannot vote in polls in this forum
You cannot attach files in this forum
You cannot download files in this forum