Черная смерть / Black Death (Кристофер Смит / Christopher Smith) [2010, Германия, Великобритания, Драма, детектив, BDRemux 1080p] MVO R5 Sub rus, eng + original eng

Reply to topic
 
Author
Message

Satyr ®

Online

Gender: Unknown

Longevity: 11 years

Posts: 15402

Reputation: 55 [+] [-]

Satyr · Post 11-Dec-2010 18:57

[Quote] 

Черная смерть / Black Death
Страна: Германия, Великобритания
Студия: Egoli Tossell Film AG
Жанр: Драма, детектив
Год выпуска: 2010
Продолжительность: 1:41:28
Перевод: Профессиональный (многоголосый закадровый) R5
Cубтитры: русские, английские, английские (SDH)
Оригинальная аудиодорожка: английский
Режиссер: Кристофер Смит / Christopher Smith
В ролях: Шон Бин, Эдди Редмэйн, Кэрис Ван Хаутен, Дэвид Уорнер, Кимберли Никсон, Джон Линч, Джонни Харрис, Тим МакИннерни, Энди Найман, Марианна Грэффэм, Тиго Жернандт, Дэвид Мастерсон, Нике Мартенс, Мартин Хентшел, Джэми Баллард, Дэниэл Стейнер и др.
Описание: Средневековая Англия попала под тень Черной смерти. В этом апокалиптическом мире, заполненном страхом и суеверием, собираются несколько монахов, объединенных одной целью — выследить того, кто способен возвращать к жизни умерших от чумы.
Доп. информация: ХД звука на диске небыло.
Тип релиза: BDRemux 1080p
Контейнер: MKV
Навигация по главам: Есть
Видео: MPEG-4 AVC Video 1920x1080, 30944 kbps, 1080p, 24 fps, 16:9, High Profile 4.1
Аудио 1: Русский (R5), AC-3, 6 ch, 48000 Hz, 448 kbps
Аудио 2: English, AC-3, 6 ch, 48000 Hz, 640 kbps
Аудио 3: Director's commentary track, English, AC-3, 2 ch, 48000 Hz, 224 kbps
Формат субтитров: softsub (SRT)

MediaInfo

General
Complete name : Черная смерть. Black Death. (Кристофер Смит. Christopher Smith)[2010г. Драма, детектив, BDRemux 1080p].mkv
Format : Matroska
File size : 22.8 GiB
Duration : 1h 41mn
Overall bit rate : 32.2 Mbps
Encoded date : UTC 2010-11-06 22:29:16
Writing application : mkvmerge v3.4.0 ('Rapunzel') сборка от May 15 2010 09:38:20
Writing library : libebml v0.8.0 + libmatroska v0.9.0
Video
ID : 1
Format : AVC
Format/Info : Advanced Video Codec
Format profile : High@L4.1
Format settings, CABAC : Yes
Format settings, ReFrames : 4 frames
Muxing mode : Container profile=Unknown@4.1
Codec ID : V_MPEG4/ISO/AVC
Duration : 1h 41mn
Bit rate mode : Variable
Bit rate : 30.2 Mbps
Maximum bit rate : 33.0 Mbps
Width : 1 920 pixels
Height : 1 080 pixels
Display aspect ratio : 16:9
Frame rate : 24.000 fps
Color space : YUV
Chroma subsampling : 4:2:0
Bit depth : 8 bits
Scan type : Progressive
Bits/(Pixel*Frame) : 0.607
Stream size : 21.4 GiB (94%)
Title : Чёрная смерть. Black Death. BDRemux 1080p
Color primaries : BT.709-5, BT.1361, IEC 61966-2-4, SMPTE RP177
Transfer characteristics : BT.709-5, BT.1361
Matrix coefficients : BT.709-5, BT.1361, IEC 61966-2-4 709, SMPTE RP177
Audio #1
ID : 2
Format : AC-3
Format/Info : Audio Coding 3
Mode extension : CM (complete main)
Codec ID : A_AC3
Duration : 1h 41mn
Bit rate mode : Constant
Bit rate : 448 Kbps
Channel(s) : 6 channels
Channel positions : Front: L C R, Side: L R, LFE
Sampling rate : 48.0 KHz
Bit depth : 16 bits
Stream size : 325 MiB (1%)
Title : Russian, AC-3, 6 ch, 48000 Hz, 448 kbps
Language : Russian
Audio #2
ID : 3
Format : AC-3
Format/Info : Audio Coding 3
Mode extension : CM (complete main)
Codec ID : A_AC3
Duration : 1h 41mn
Bit rate mode : Constant
Bit rate : 640 Kbps
Channel(s) : 6 channels
Channel positions : Front: L C R, Side: L R, LFE
Sampling rate : 48.0 KHz
Bit depth : 16 bits
Stream size : 465 MiB (2%)
Title : English, AC-3, 6 ch, 48000 Hz, 640 kbps
Language : English
Audio #3
ID : 4
Format : AC-3
Format/Info : Audio Coding 3
Mode extension : CM (complete main)
Codec ID : A_AC3
Duration : 1h 41mn
Bit rate mode : Constant
Bit rate : 224 Kbps
Channel(s) : 2 channels
Channel positions : Front: L R
Sampling rate : 48.0 KHz
Bit depth : 16 bits
Stream size : 163 MiB (1%)
Title : Kommentary with director Christopher Smith, English, AC-3, 2 ch, 48000 Hz, 224 kbps
Language : English
Text #1
ID : 5
Format : UTF-8
Codec ID : S_TEXT/UTF8
Codec ID/Info : UTF-8 Plain Text
Title : Russian subtitles
Language : Russian
Text #2
ID : 6
Format : UTF-8
Codec ID : S_TEXT/UTF8
Codec ID/Info : UTF-8 Plain Text
Title : English subtitles
Language : English
Text #3
ID : 7
Format : UTF-8
Codec ID : S_TEXT/UTF8
Codec ID/Info : UTF-8 Plain Text
Title : English subtitles (SDH)
Language : English
Menu
00:00:00.000 : en:1
00:08:58.458 : en:2
00:23:49.125 : en:3
00:32:59.083 : en:4
00:40:50.958 : en:5
00:48:48.083 : en:6
00:56:02.458 : en:7
01:04:46.416 : en:8
01:13:34.541 : en:9
01:18:15.791 : en:10
01:24:53.666 : en:11
01:35:10.375 : en:12
[Profile]  [PM] 
Display posts:    
Reply to topic

Current time is: 28-May 06:00

All times are UTC + 2



You cannot post new topics in this forum
You cannot reply to topics in this forum
You cannot edit your posts in this forum
You cannot delete your posts in this forum
You cannot vote in polls in this forum
You cannot attach files in this forum
You cannot download files in this forum