Бомж с дробовиком / Hobo with a Shotgun (Джейсон Айзенер / Jason Eisener) [2011, США, Канада, боевик, триллер, криминал, BDRemux 1080p] AVO (Котов) + DVO + Original (Eng) + Sub (4xRus, Eng)

Reply to topic
 
Author
Message

Wolf ®

Gender: Unknown

Longevity: 10 years

Posts: 2860

Reputation: 0 [+] [-]

Wolf · Post 31-Jul-2011 23:30

[Quote] 

-Бомж с дробовиком / Hobo with a Shotgun-Страна: США, Канада
Жанр: боевик, триллер, криминал
Год выпуска: 2011
Продолжительность: 01:26:00-Перевод: Любительский (одноголосый, закадровый)
Перевод: Авторский (одноголосый, закадровый) - Вячеслав Котов
Перевод: Любительский (двухголосый, закадровый)
Субтитры: русские (четыре варианта), английские-Режиссер: Джейсон Айснер / Jason Eisener-В ролях: Рутгер Хауэр, Грегори Смит, Робб Уэллс, Молли Дансуорт, Ник Бейтман, Брайан Дауни, Джереми Акерман, Дэвид Брант, Майкл Фокс, Паша Эбрахими и др.-Описание: В центре событий бомж, которому надоело наблюдать беспредел творящийся на улицах. В один прекрасный момент чаша его терпения переполняется, он хватает с витрины магазина дробовик и идет наводить справедливость, отстреливая бандитов, коррумпированных копов, педофилов и прочих уродов.- -Качество: BDRemux (спасибо CHDBits)
Формат: MKV
Видео: MPEG-4 AVC Video 19962 kbps / 1080p / 23.976 fps / 16:9/ High Profile 4.1
Аудио: Russian / DTS Audio 5.1 / 48 kHz / 1510 kbps / 24-bit
Аудио: Russian / DTS-HD Master Audio / 5.1 / 48 kHz / 3936 kbps / 24-bit (DTS Core: 5.1 / 48 kHz / 1510 kbps / 24-bit)
Аудио: Russian / Dolby Digital Audio 5.1 / 48 kHz / 384 kbps [DVO]
Аудио: English / DTS-HD Master Audio / 5.1 / 48 kHz / 4206 kbps / 24-bit (DTS Core: 5.1 / 48 kHz / 768 kbps / 24-bit)

MI

General
Complete name                    : X:\  -= Фильмы =-\Бомж с дробовиком (2011. Hobo with a Shotgun).mkv
Format                           : Matroska
File size                        : 18.1 GiB
Duration                         : 1h 26mn
Overall bit rate                 : 29.9 Mbps
Encoded date                     : UTC 2011-07-24 16:23:49
Writing application              : mkvmerge v4.9.1 ('Ich will') сборка от Jul 11 2011 23:53:15
Writing library                  : libebml v1.2.1 + libmatroska v1.1.1
Video
ID                               : 1
Format                           : AVC
Format/Info                      : Advanced Video Codec
Format profile                   : High@L4.1
Format settings, CABAC           : Yes
Format settings, ReFrames        : 4 frames
Muxing mode                      : Container profile=Unknown@4.1
Codec ID                         : V_MPEG4/ISO/AVC
Duration                         : 1h 26mn
Bit rate mode                    : Variable
Maximum bit rate                 : 30.0 Mbps
Width                            : 1 920 pixels
Height                           : 1 080 pixels
Display aspect ratio             : 16:9
Frame rate                       : 23.976 fps
Standard                         : NTSC
Color space                      : YUV
Chroma subsampling               : 4:2:0
Bit depth                        : 8 bits
Scan type                        : Progressive
Color primaries                  : BT.709-5, BT.1361, IEC 61966-2-4, SMPTE RP177
Transfer characteristics         : BT.709-5, BT.1361
Matrix coefficients              : BT.709-5, BT.1361, IEC 61966-2-4 709, SMPTE RP177
Audio #1
ID                               : 2
Format                           : DTS
Format/Info                      : Digital Theater Systems
Codec ID                         : A_DTS
Duration                         : 1h 26mn
Bit rate mode                    : Constant
Bit rate                         : 1 510 Kbps
Channel(s)                       : 6 channels
Channel positions                : Front: L C R, Side: L R, LFE
Sampling rate                    : 48.0 KHz
Bit depth                        : 24 bits
Stream size                      : 934 MiB (5%)
Title                            : VO (den904 по авторским субтитрам el brujo)
Language                         : Russian
Audio #2
ID                               : 3
Format                           : DTS
Format/Info                      : Digital Theater Systems
Format profile                   : MA
Codec ID                         : A_DTS
Duration                         : 1h 26mn
Bit rate mode                    : Variable
Channel(s)                       : 6 channels
Channel positions                : Front: L C R, Side: L R, LFE
Sampling rate                    : 48.0 KHz
Bit depth                        : 24 bits
Title                            : AVO (Котов)
Language                         : Russian
Audio #3
ID                               : 4
Format                           : AC-3
Format/Info                      : Audio Coding 3
Mode extension                   : CM (complete main)
Codec ID                         : A_AC3
Duration                         : 1h 26mn
Bit rate mode                    : Constant
Bit rate                         : 384 Kbps
Channel(s)                       : 6 channels
Channel positions                : Front: L C R, Side: L R, LFE
Sampling rate                    : 48.0 KHz
Bit depth                        : 16 bits
Stream size                      : 237 MiB (1%)
Title                            : DVO
Language                         : Russian
Audio #4
ID                               : 5
Format                           : DTS
Format/Info                      : Digital Theater Systems
Format profile                   : MA
Codec ID                         : A_DTS
Duration                         : 1h 26mn
Bit rate mode                    : Variable
Channel(s)                       : 6 channels
Channel positions                : Front: L C R, Side: L R, LFE
Sampling rate                    : 48.0 KHz
Bit depth                        : 24 bits
Title                            : Original
Language                         : English
Text #1
ID                               : 6
Format                           : UTF-8
Codec ID                         : S_TEXT/UTF8
Codec ID/Info                    : UTF-8 Plain Text
Title                            : Plandercozeron, без мата
Language                         : Russian
Text #2
ID                               : 7
Format                           : UTF-8
Codec ID                         : S_TEXT/UTF8
Codec ID/Info                    : UTF-8 Plain Text
Title                            : Plandercozeron, с матом
Language                         : Russian
Text #3
ID                               : 8
Format                           : UTF-8
Codec ID                         : S_TEXT/UTF8
Codec ID/Info                    : UTF-8 Plain Text
Title                            : Notabenoid, с матом
Language                         : Russian
Text #4
ID                               : 9
Format                           : UTF-8
Codec ID                         : S_TEXT/UTF8
Codec ID/Info                    : UTF-8 Plain Text
Title                            : el brujo, с матом
Language                         : Russian
Text #5
ID                               : 10
Format                           : UTF-8
Codec ID                         : S_TEXT/UTF8
Codec ID/Info                    : UTF-8 Plain Text
Language                         : English

Videobitrate Scan:


Скриншоты (fastpic)



Скриншоты (radikal)



[Profile]  [PM] 
Display posts:    
Reply to topic

Current time is: 03-Jun 15:54

All times are UTC + 2



You cannot post new topics in this forum
You cannot reply to topics in this forum
You cannot edit your posts in this forum
You cannot delete your posts in this forum
You cannot vote in polls in this forum
You cannot attach files in this forum
You cannot download files in this forum