Хэшер / Hesher (Спенсер Сассер / Spencer Susser) [2010, США, драма, BDRip 1080p] VO + original eng

Reply to topic
 
Author
Message

Satyr ®

Gender: Unknown

Longevity: 11 years

Posts: 15402

Reputation: 55 [+] [-]

Satyr · Post 14-Aug-2011 00:04

[Quote] 

Хэшер / Hesher
Страна: США
Жанр: драма
Год выпуска: 2010
Продолжительность: 01:45:00
Перевод: Любительский (одноголосый закадровый)
Предупреждение: Ненормативная лексика!
Cубтитры: нет
Оригинальная аудиодорожка: английский
Режиссер: Спенсер Сассер / Spencer Susser
В ролях: Натали Портман, Джозеф Гордон-Левитт, Рэйн Уилсон, Джон Кэрролл Линч, Пайпер Лори, Фрэнк Коллисон, Одри Василевски, Девин Брошу, Аллан Граф, Моника Стэггс
Описание: Хэшер — одиночка. Он ненавидит мир и всех, кто в нем живет. Он ходит с давно не мытыми волосами и самодельными татуировками, которые украшают его тело. Он плохо питается и курит много сигарет. Он любит огонь и часто поджигает им различные предметы. Он мирно жил в своем фургоне до того момента, пока не встретил Ти Джея…
Сэмпл - http://multi-up.com/535969
Тип релиза: BDRip 1080p [исходник неизвестен]
Контейнер: MKV
Видео: AVC, 1920x1080, 16:9, 9264 Кбит/сек, 24,000 кадр/сек
Аудио: русский: AC-3, 6 каналов, 48,0 КГц, 640 Кбит/сек
Аудио 2: английский: DTS, 6 каналов, 48,0 КГц, 1510 Кбит/сек

MediaInfo


Общее
Уникальный идентификатор : 206262941477044763949520631108962816770 (0x9B2CCC2BA2532FCDB0EDB77375531302)
Полное имя : G:\Hesher.2010.BDRip.1080p.mkv
Формат : Matroska
Версия формата : Version 2
Размер файла : 8,42 Гбайт
Продолжительность : 1 ч. 45 м.
Общий поток : 11,4 Мбит/сек
Дата кодирования : UTC 2011-08-08 08:47:10
Программа кодирования : mkvmerge v4.6.0 ('Still Crazy After All These Years') сборка от Mar 10 2011 02:50:32
Библиотека кодирования : libebml v1.2.0 + libmatroska v1.1.0
Видео
Идентификатор : 1
Формат : AVC
Формат/Информация : Advanced Video Codec
Профиль формата : High@L4.1
Параметр CABAC формата : Да
Параметр ReFrames формата : 4 кадра
Параметры GOP формата : M=4, N=25
Идентификатор кодека : V_MPEG4/ISO/AVC
Продолжительность : 1 ч. 45 м.
Битрейт : 9264 Кбит/сек
Ширина : 1920 пикс.
Высота : 1080 пикс.
Соотношение сторон : 16:9
Частота кадров : 24,000 кадр/сек
Цветовое пространство : YUV
Подвыборка цветности : 4:2:0
Битовая глубина : 8 бит
Тип развёртки : Прогрессивная
Бит/(Пиксели*Кадры) : 0.186
Размер потока : 6,66 Гбайт (79%)
Библиотека кодирования : x264 core 116 r2044 392e762
Настройки программы : cabac=1 / ref=4 / deblock=1:0:0 / analyse=0x3:0x133 / me=umh / subme=7 / psy=1 / psy_rd=1.00:0.00 / mixed_ref=1 / me_range=16 / chroma_me=1 / trellis=1 / 8x8dct=1 / cqm=0 / deadzone=21,11 / fast_pskip=0 / chroma_qp_offset=-2 / threads=12 / sliced_threads=0 / nr=0 / decimate=1 / interlaced=0 / bluray_compat=0 / constrained_intra=0 / bframes=3 / b_pyramid=2 / b_adapt=1 / b_bias=0 / direct=1 / weightb=1 / open_gop=0 / weightp=2 / keyint=250 / keyint_min=24 / scenecut=40 / intra_refresh=0 / rc_lookahead=40 / rc=2pass / mbtree=1 / bitrate=9264 / ratetol=1.0 / qcomp=0.60 / qpmin=0 / qpmax=69 / qpstep=4 / cplxblur=20.0 / qblur=0.5 / ip_ratio=1.40 / aq=1:1.00
Язык : English
Аудио #1
Идентификатор : 2
Формат : AC-3
Формат/Информация : Audio Coding 3
Расширение режима : CM (complete main)
Идентификатор кодека : A_AC3
Продолжительность : 1 ч. 45 м.
Вид битрейта : Постоянный
Битрейт : 640 Кбит/сек
Каналы : 6 каналов
Расположение каналов : Front: L C R, Side: L R, LFE
Частота : 48,0 КГц
Битовая глубина : 16 бит
Метод сжатия : С потерями
Размер потока : 483 Мбайт (6%)
Заголовок : VO (den904)
Язык : Russian
Аудио #2
Идентификатор : 3
Формат : DTS
Формат/Информация : Digital Theater Systems
Идентификатор кодека : A_DTS
Продолжительность : 1 ч. 45 м.
Вид битрейта : Постоянный
Битрейт : 1510 Кбит/сек
Каналы : 6 каналов
Расположение каналов : Front: L C R, Side: L R, LFE
Частота : 48,0 КГц
Битовая глубина : 24 бит
Метод сжатия : С потерями
Задержка видео : 10 мс.
Размер потока : 1,11 Гбайт (13%)
Заголовок : Original
Язык : English

Скриншоты


[Profile]  [PM] 
Display posts:    
Reply to topic

Current time is: 03-Jun 15:29

All times are UTC + 2



You cannot post new topics in this forum
You cannot reply to topics in this forum
You cannot edit your posts in this forum
You cannot delete your posts in this forum
You cannot vote in polls in this forum
You cannot attach files in this forum
You cannot download files in this forum