Липучка / Flypaper (Роб Минкофф / Rob Minkoff) [2011, США, Германия, комедия, криминал, детектив, BDRip 1080p]

Reply to topic
 
Author
Message

Faust ®

Gender: Unknown

Longevity: 8 years 8 months

Posts: 14058

Reputation: 0 [+] [-]

Faust · Post 06-Nov-2011 23:45

[Quote] 

-Липучка / Flypaper-Страна: США, Германия
Жанр: Комедия, криминал, детектив
Год выпуска: 2011
Продолжительность: 01:27:14
Перевод: Одноголосый закадровый присутствует мат
Перевод : Профессиональный (дублированный) украинский
Cубтитры: русские, английские
Оригинальная аудиодорожка: английский-Режиссер: Роб Минкофф / Rob Minkoff
В ролях: Патрик Демпси (Tripp), Эшли Джадд (Kaitlin), Тим Блейк Нельсон (Peanut Butter), Мехи Файфер (Darrien), Мэтт Райан (Gates), Джефри Тэмбор (Gordon Blythe), Джон Вентимилья (Weinstein), Прюитт Тэйлор Винс (Jelly), Октавия Спенсер (Madge Wiggins), Кертис Армстронг, Моника Акоста (Bank Customer), Бо Брассо (E.M.T.)-Описание: Перед самым закрытием в банк врывается две группы грабителей. Посетители и работники банка оказываются между двух огней. Один из посетителей старается примирить представителей двух криминальных групп - ведь это единственный шанс выжить для тех кто оказался в банке, а для него шанс произвести впечатление на девушку-кассира, в которую он влюбился с первого взгляда. Постепенно наш герой понимает, что похоже, все кроме него оказались в этом банке в момент ограбления не случайно...-Доп. информация: Спасибо den904 за предоставленный чистый голос.- -Тип релиза: BDRip [CHDBits]
Контейнер: MKV
Видео: MPEG-4 AVC Video / 9200 kbps / 1920 x 818 p / 23.976 fps / 2.353: 1 / High Profile 4.1
Аудио: Russian / DTS Audio / 5.1 / 48 kHz / 1509 kbps / 16-bit
Аудио: English / DTS Audio / 5.1 / 48 kHz / 1509 kbps / 16-bit
Аудио: Ukrainian/ Dolby Digital Audio / 5.1 / 48 kHz / 448 kbps
Формат субтитров: softsub (SRT)

MI

Код:
General
Complete name                    : X:\  -= Фильмы =-\Липучка (2011. Flypaper) 1080p.mkv
Format                           : Matroska
File size                        : 7.70 GiB
Duration                         : 1h 27mn
Overall bit rate                 : 12.6 Mbps
Movie name                       : Flypaper.2011.BluRay.1080p.DTS.x264-CHD [torrentsland.com.ua]
Encoded date                     : UTC 2011-10-13 20:29:46
Writing application              : mkvmerge v4.9.1 ('Ich will') сборка от Jul 11 2011 23:53:15
Writing library                  : libebml v1.2.1 + libmatroska v1.1.1
Video
ID                               : 1
Format                           : AVC
Format/Info                      : Advanced Video Codec
Format profile                   : High@L4.1
Format settings, CABAC           : Yes
Format settings, ReFrames        : 5 frames
Muxing mode                      : Container profile=Unknown@4.1
Codec ID                         : V_MPEG4/ISO/AVC
Duration                         : 1h 27mn
Bit rate                         : 9 200 Kbps
Width                            : 1 920 pixels
Height                           : 818 pixels
Display aspect ratio             : 2.35:1
Frame rate                       : 23.976 fps
Color space                      : YUV
Chroma subsampling               : 4:2:0
Bit depth                        : 8 bits
Scan type                        : Progressive
Bits/(Pixel*Frame)               : 0.244
Stream size                      : 5.44 GiB (71%)
Title                            : Flypaper.2011.BluRay.1080p.DTS.x264-CHD
Writing library                  : x264 core 116 r2074 2641b9e
Encoding settings                : cabac=1 / ref=5 / deblock=1:-3:-3 / analyse=0x3:0x113 / me=umh / subme=10 / psy=1 / psy_rd=1.00:0.05 / mixed_ref=1 / me_range=32 / chroma_me=1 / trellis=2 / 8x8dct=1 / cqm=0 / deadzone=21,11 / fast_pskip=0 / chroma_qp_offset=-2 / threads=8 / sliced_threads=0 / nr=0 / decimate=1 / interlaced=0 / bluray_compat=0 / constrained_intra=0 / bframes=6 / b_pyramid=2 / b_adapt=2 / b_bias=0 / direct=3 / weightb=1 / open_gop=0 / weightp=2 / keyint=250 / keyint_min=23 / scenecut=40 / intra_refresh=0 / rc_lookahead=50 / rc=2pass / mbtree=1 / bitrate=9200 / ratetol=1.0 / qcomp=0.70 / qpmin=0 / qpmax=69 / qpstep=4 / cplxblur=20.0 / qblur=0.5 / vbv_maxrate=45000 / vbv_bufsize=40000 / nal_hrd=none / ip_ratio=1.40 / aq=2:0.80
Language                         : English
Audio #1
ID                               : 2
Format                           : DTS
Format/Info                      : Digital Theater Systems
Codec ID                         : A_DTS
Duration                         : 1h 27mn
Bit rate mode                    : Constant
Bit rate                         : 1 510 Kbps
Channel(s)                       : 6 channels
Channel positions                : Front: L C R, Side: L R, LFE
Sampling rate                    : 48.0 KHz
Bit depth                        : 16 bits
Stream size                      : 942 MiB (12%)
Title                            : VO [den904 по субтитрам yarahort]
Language                         : Russian
Audio #2
ID                               : 3
Format                           : DTS
Format/Info                      : Digital Theater Systems
Codec ID                         : A_DTS
Duration                         : 1h 27mn
Bit rate mode                    : Constant
Bit rate                         : 1 510 Kbps
Channel(s)                       : 6 channels
Channel positions                : Front: L C R, Side: L R, LFE
Sampling rate                    : 48.0 KHz
Bit depth                        : 24 bits
Stream size                      : 942 MiB (12%)
Title                            : DTS-CORE 1536K
Language                         : English
Audio #3
ID                               : 4
Format                           : AC-3
Format/Info                      : Audio Coding 3
Mode extension                   : CM (complete main)
Codec ID                         : A_AC3
Duration                         : 1h 27mn
Bit rate mode                    : Constant
Bit rate                         : 448 Kbps
Channel(s)                       : 6 channels
Channel positions                : Front: L C R, Side: L R, LFE
Sampling rate                    : 48.0 KHz
Bit depth                        : 16 bits
Stream size                      : 280 MiB (4%)
Title                            : Dub
Language                         : Ukrainian
Text #1
ID                               : 5
Format                           : UTF-8
Codec ID                         : S_TEXT/UTF8
Codec ID/Info                    : UTF-8 Plain Text
Language                         : Russian
Text #2
ID                               : 6
Format                           : UTF-8
Codec ID                         : S_TEXT/UTF8
Codec ID/Info                    : UTF-8 Plain Text
Language                         : English
Menu
00:00:00.000                     : en:00:00:00.000
00:06:26.803                     : en:00:06:26.803
00:14:44.217                     : en:00:14:44.217
00:22:13.541                     : en:00:22:13.541
00:30:18.650                     : en:00:30:18.650
00:38:39.609                     : en:00:38:39.609
00:46:52.852                     : en:00:46:52.852
00:58:53.405                     : en:00:58:53.405
01:05:45.233                     : en:01:05:45.233
01:13:13.347                     : en:01:13:13.347
01:20:24.570                     : en:01:20:24.570
01:21:55.577                     : en:01:21:55.577

Видеоряд от CHD

▒░░░░░░░░░░▒░░░░░░░░░░░░░░░░░░░░░░░░░░░░░░░░░░░░░░░░░░░░░░░░░░░░░░░░░░░░░░░▒▒▒▒▒
░░░░░▒░░░▒░░░░░░░░░░░░░░░░░░░░░░░░░▄▄░░░?▄▄░░░░░░░░░░░░░░░░░░░░░░░░░░░░░░░░▒▒▒▒
░░░░▒▓▒░░░░░░░░░░░░░░░░░░░░░░░▄▄▓████░░░░░████▓▄▄░░░░░░░░░░░░░░░░░░░░░░░░░░░░▒▒▒
░▒▒▓▓█▓▓▒▒░░░░░░░░░░░░░░▄▄▓░▄███████▓░░░░░▓███████▄░▓▄▄░░░░░░░░░░░░░░░░░░░░░░░▒▒
░░░░▒▓▒░░░░░░░░░░░░░░░▄████░░▓█████▌░░░░░░░██████▓░░████▄░░░░░░░░░░░░░░░░░░░░░░▒
░░░░░▒░░░░░░░░░░░░░░░███████░░█████▌░░░░░░░██████░░███████░░░░░░░░░░░░░░░░░░░░░▒
░░░░░░░▒░░░░░░░░░░░▄████████▓░█████▌░░░░░░░██████░▓████████▄░░░░░░░░░░░░░░░░░░░▒
░░░▒░░░░░░░░░░░░░░░██████████░█████▌░░░░░░░██████░██████████░░░░░░░░░░░░░░░░░░░▒
░░░░░░░░░░░░░░░░░░█████▀░░▓██░░████▌░░░░░░░█████░░████▌▀█████░░░░░░░░░░░░░░░░░░▒
░░░░░░░░░░░░░░░░▓████▀░░░░░▀█▓░████▌░░░░░░░█████░▐█▀██▌░░▀████▓░░░░░░░░░░░░░░░░▒
░░░░░░░░░░░░░░░░████░░░░░░░░▀░░▓███▌░░░░░░░███▌▓░░▀▓██▌░░░░████░░░░░░░░░░░░░░░░▒
░░░░░░░░░░░░░░░▓███░░░░░░░░░░░░░███▌░░░░░░░███▌░░░░▒██▌░░░░░███▓░░░░░░░░░░░░░░░▒
░░░░░░░░░░░░░░░███▓░░░░░░░░░░░░░████▄░░░░░▄███▌░░░░░██▌░░░░░▓███░░░░░░░░░░░░░░░▒
░░░░░░░░░░░░░░███▌░░░░░░░░░░░░░░██████████████▌░░░░░██▌░░░░░░███▌░░░░░░░░░░░░░░▒
░░░░░░░░░░░░░░███▌░░░░░░░░░░░░░░██████████████▌░░░░░██▌░░░░░░███▌░░░░░░░░░░░░░░▒
░░░░░░░░░░░░░░███▌░░░░░░░░░░░░░░█████▀░░░░▓███▌░░░░░██▌░░░░░░███▌░░░░░░░░░░░░░░▒
░░░░░░░░░░░░░░███▌░░░░░░░░░░░░░░████▓░░░░░░███▌░░░░░██▌░░░░░░███▌░░░░░░░▒░░░░░░▒
░░░░░░░░░░░░░░███▌░░░░░░░░░░░░░░███▌░░░░░░░███▌░░░░░██▌░░░░░░███▌░░░░▒░░░░░░░░░▒
░░░░░░░░░░░░░░▓███▓░░░░░░░░░░░░░███▌░░░░░░░███▌░░░░░██▌░░░░░▓███▓░░░░░░░▒░░░░░░▒
░░░░░░░░░░░░░░░████▓░░░░░░░░░░░░███▌░░░░░░░███▌░░░░▒██▌░░░░▓████░░░░░░░░▒░░░░░░▒
░░░░░░░░░░░░░░░░████▄░░░░░░░▄░░▓████▓░░░░░▓████▓░░▄▐██▌░░░▄████░░░░░░░░▒▓▒░░░░░▒
░░░░░░░░░░░░░░░░▀█████░░░░░▄█▓░██████░░░░░██████░▐████▌░░█████▀░░░░░▒▒▓▓█▓▓▒▒░▒▒
░░░░░░░░░░░░░░░░░▀█████▄▄░▄██░░█████▌░░░░░██████░░████▌▄█████▀░░░░░░░░░▒▓▒░░░░░▒
░░░░░░░░░░░░░░░░░░▀██████████░░█████▌░░░░░██████░░██████████▀░░░░░░░░░░░▒░░░░░░▒
░░░░░░░░░░░░░░░░░░░░████████▓░▓█████▌░░░░░██████▓░▓████████░░░░░░░░░░░░▒░░░░░░░▒
░░░░░░░░░░░░░░░░░░░░░▓██████░░██████▌░░░░░███████░░███████░░░░░░░░░░░░░░░░▒░░░░▒
░░░░░░░░░░░░░░░░░░░░░░▀████░░▓██████▌░░░░░███████▓░░████▀░░░░░░░░░░░░▒░░░░░░▒░░▒
░░░░░░░░░░░░░░░░░░░░░░░░▀▀▓░▀███████▌░░░░░████████▀░▓▀▀░░░░░░░░░░░░░░░░░░░░░░░░▒
░░░░░░░░░░░░░░░░░░░░░░░░░░░░░░▀▀▀███▀░░░░░▀▓██▀▀▀░░░░░░░░░░░░░░░░░░░░░░░░░░░░░░▒
░░░░░░░░░░░░░░░░░░░░░░░░░░░░░░░░░░░░░░░░░░░░░░░░░░░░░░░░░░░░░░░░░░░░░░░░░░░░░░░▒
░░░░▒▒▒▒▒▒▒▒▒▒▒▒▒▒▒▒▒▒▒▒▒▒▒▒▒▒▒▒▒▒▒▒▒▒▒▒▒▒▒▒▒▒▒▒▒▒▒▒▒▒▒▒▒▒▒▒▒▒▒▒▒▒▒▒▒▒▒▒▒▒▒▒▒▒▒▒
░░░▒▒▒▒▒▒▒▒▒▒▒▒▒▒▒▒▒▒▒▒▒▒▒▒▒Classic High Definition▒▒▒▒▒▒▒▒▒▒▒▒▒▒▒▒▒▒▒▒▒▒▒▒▒▒▒▒
░░▒▒▒▒▒▒▒▒▒▒▒▒▒▒▒▒▒▒▒▒▒▒▒▒▒▒▒▒▒▒▒▒▒▒▒▒▒▒▒▒▒▒▒▒▒▒▒▒▒▒▒▒▒▒▒▒▒▒▒▒▒▒▒▒▒▒▒▒▒▒▒▒▒▒▒▒
░▒▒▒▒▒▒▒▒▒▒▒▒▒▒▒▒▒▒▒▒▒▒▒▒▒▒▒▒▒▒Proudly Presents▒▒▒▒▒▒▒▒▒▒▒▒▒▒▒▒▒▒▒▒▒▒▒▒▒▒▒▒▒▒
▒▒▒▒▒▒▒▒▒▒▒▒▒▒▒▒▒▒▒▒▒▒▒▒▒▒▒▒▒▒▒▒▒▒▒▒▒▒▒▒▒▒▒▒▒▒▒▒▒▒▒▒▒▒▒▒▒▒▒▒▒▒▒▒▒▒▒▒▒▒▒▒▒▒▒▒
Flypaper.2011.BluRay.1080p.DTS.x264-CHD
░▒░▒░▒░░░░░░░░░░░░░░░░░░░░░░░░░░░░░░░░░░░░░░░░░░░░░░░░░░░░░░░░░░░░░░░░░░░░░░░░?
Flypaper.2011.BluRay.1080p.DTS.x264-CHD
RELEASE DATE....: 10/13/2011
THEATRE DATE....: 2011
iMDB URL........: http://www.imdb.com/title/tt1541160/
iMDB RATiNG.....: 6.4/10 (1,036 votes)
GENRE...........: Action | Crime | Drama
SOURCE..........: Flypaper.2011 Blu-Ray 1080p AVC DTS-HD MA-CHDBits
ViDEO BiTRATE...: x264 @ 9200 Kbps
FRAME RATE......: 23.976 fps
AUDiO 1.........: ENG DTS-CORE 5.1CH @ 1536 Kbps
RUNTiME 1.......: 01:27:14 (h:m:s)
ASPECT RATiO....: 2.353: 1
RESOLUTiON......: 1920 X 818
SUBTiTLES.......: N/A
FilE SiZE.......: 6.52G
Encoder.........: chp@CHD
x264 [info]: frame I:1120 Avg QP:13.79 size:189986
x264 [info]: frame P:27430 Avg QP:14.87 size: 97690
x264 [info]: frame B:96956 Avg QP:17.66 size: 32064

Скриншоты


[Profile]  [PM] 
Display posts:    
Reply to topic

Current time is: 03-Jun 14:47

All times are UTC + 2



You cannot post new topics in this forum
You cannot reply to topics in this forum
You cannot edit your posts in this forum
You cannot delete your posts in this forum
You cannot vote in polls in this forum
You cannot attach files in this forum
You cannot download files in this forum