Секс по дружбе / Friends with Benefits (Уилл Глак / Will Gluck) [2011, США, мелодрама, комедия, BDRemux] Dub Sub Eng Rus (voronine) + Original Eng + Ukr

Reply to topic
 
Author
Message

Varggoth ®

Gender: Unknown

Longevity: 11 years

Posts: 7375

Reputation: 3 [+] [-]

Varggoth · Post 20-Nov-2011 00:02

[Quote] 

Секс по дружбе
Friends with Benefits- Год выхода: 2011
Страна: США | USA
Жанр: драма
Продолжительность: 01:49:26
Перевод: профессиональный (полное дублирование)
Субтитры: английские, русские (полные, voronine), русские (Forced)-Режиссер: Уилл Глак / Will Gluck
В ролях: Джастин Тимберлэйк, Мила Кунис, Патришия Кларксон, Дженна Элфмэн, Брайан Гринберг, Ричард Дженкинс, Вуди Харрельсон, Нолан Гоулд, Энди Сэмберг, Шон Уайт...-Описание:
Главная героиня — сотрудник кадрового агентства, которую преследуют фобии в отношениях с обязательствами. Однако, эти проблемы оказываются надуманными, после того как она встречает редактора глянцевого журнала. Он, в свою очередь, устал от женщин, которые мечтают вступить с ним в связь. Таким образом, созданы все условия для бурного романа и столкновения характеров и желаний.-Качество: BDRemux (tnx CHDBits)
Формат: MKV
Видео кодек: AVC
Аудио кодек: DTS
Видео: MPEG-4 AVC Video 24929 kbps 1920х1080p / 23.976 fps / 16:9 / High Profile 4.1
Аудио #1: Russian: 48 kHz, AC3, 3/2 (L,C,R,l,r) + LFE ch, ~384.00 kbps avg |Дубляж, R5|
Аудио #1: Ukrainian: 48 kHz, AC3, 3/2 (L,C,R,l,r) + LFE ch, ~384.00 kbps avg |Дубляж, R5|
Аудио #2: English: DTS-HD MA / 5.1 / 48 kHz / 2172 kbps / 16-bit (DTS Core: 5.1 / 48 kHz / 1509 kbps / 16-bit) |Оригинал, BluRay US|
Аудио #3: English: Dolby Digital / 192 kbps 2.0 / 48 kHz / 192 kbps |Commentary|
Субтитры: английские, русские (полные, voronine), русские (Forced)



MI

General
Unique ID                        : 221438687512200457650075121317041568642 (0xA6978A37B590745A94171BD590DA7B82)
Complete name                    : D:\HD\Friends.with.Benefits.2011.BDRemux.1080p.Rus.Ukr.Eng.mkv
Format                           : Matroska
File size                        : 21.5 GiB
Duration                         : 1h 49mn
Overall bit rate                 : 28.1 Mbps
Movie name                       : Radical
Encoded date                     : UTC 2011-11-15 09:40:03
Writing application              : mkvmerge v4.4.0 ('Die Wiederkehr') сборка от Oct 31 2010 21:52:48
Writing library                  : libebml v1.0.0 + libmatroska v1.0.0
Video
ID                               : 1
Format                           : AVC
Format/Info                      : Advanced Video Codec
Format profile                   : High@L4.1
Format settings, CABAC           : Yes
Format settings, ReFrames        : 2 frames
Muxing mode                      : Container profile=Unknown@0.0
Codec ID                         : V_MPEG4/ISO/AVC
Duration                         : 1h 49mn
Bit rate mode                    : Variable
Bit rate                         : 25.0 Mbps
Width                            : 1 920 pixels
Height                           : 1 080 pixels
Display aspect ratio             : 16:9
Frame rate                       : 23.976 fps
Color space                      : YUV
Chroma subsampling               : 4:2:0
Bit depth                        : 8 bits
Scan type                        : Progressive
Bits/(Pixel*Frame)               : 0.503
Stream size                      : 19.1 GiB (89%)
Audio #1
ID                               : 2
Format                           : AC-3
Format/Info                      : Audio Coding 3
Mode extension                   : CM (complete main)
Codec ID                         : A_AC3
Duration                         : 1h 49mn
Bit rate mode                    : Constant
Bit rate                         : 384 Kbps
Channel(s)                       : 6 channels
Channel positions                : Front: L C R, Side: L R, LFE
Sampling rate                    : 48.0 KHz
Bit depth                        : 16 bits
Compression mode                 : Lossy
Stream size                      : 301 MiB (1%)
Title                            : AC3 5.1 @ 384 kbps - Дублированный, R5
Language                         : Russian
Audio #2
ID                               : 3
Format                           : AC-3
Format/Info                      : Audio Coding 3
Mode extension                   : CM (complete main)
Codec ID                         : A_AC3
Duration                         : 1h 49mn
Bit rate mode                    : Constant
Bit rate                         : 384 Kbps
Channel(s)                       : 6 channels
Channel positions                : Front: L C R, Side: L R, LFE
Sampling rate                    : 48.0 KHz
Bit depth                        : 16 bits
Compression mode                 : Lossy
Stream size                      : 301 MiB (1%)
Title                            : AC3 5.1 @ 384 kbps - Дублированный, R5
Language                         : Ukrainian
Audio #3
ID                               : 4
Format                           : DTS
Format/Info                      : Digital Theater Systems
Format profile                   : MA / Core
Codec ID                         : A_DTS
Duration                         : 1h 49mn
Bit rate mode                    : Variable
Bit rate                         : 1 561 Kbps / 1 510 Kbps
Channel(s)                       : 6 channels
Channel positions                : Front: L C R, Side: L R, LFE
Sampling rate                    : 48.0 KHz
Bit depth                        : 16 bits
Compression mode                 : Lossless / Lossy
Title                            : DTS-MA 5.1 @ 2172 kbps
Language                         : English
Audio #4
ID                               : 5
Format                           : AC-3
Format/Info                      : Audio Coding 3
Format profile                   : Dolby Digital
Mode extension                   : CM (complete main)
Codec ID                         : A_AC3
Duration                         : 1h 49mn
Bit rate mode                    : Constant
Bit rate                         : 192 Kbps
Channel(s)                       : 2 channels
Channel positions                : Front: L R
Sampling rate                    : 48.0 KHz
Bit depth                        : 16 bits
Compression mode                 : Lossy
Stream size                      : 150 MiB (1%)
Title                            : Commentary
Language                         : English
Text #1
ID                               : 6
Format                           : UTF-8
Codec ID                         : S_TEXT/UTF8
Codec ID/Info                    : UTF-8 Plain Text
Title                            : Forced
Language                         : Russian
Text #2
ID                               : 7
Format                           : UTF-8
Codec ID                         : S_TEXT/UTF8
Codec ID/Info                    : UTF-8 Plain Text
Title                            : полные, voronine
Language                         : Russian
Text #3
ID                               : 8
Format                           : UTF-8
Codec ID                         : S_TEXT/UTF8
Codec ID/Info                    : UTF-8 Plain Text
Language                         : English
Menu
00:00:00.000                     : en:Chapter.01
00:05:23.698                     : en:Chapter.02
00:12:34.211                     : en:Chapter.03
00:17:42.686                     : en:Chapter.04
00:24:20.917                     : en:Chapter.05
00:32:57.225                     : en:Chapter.06
00:41:28.819                     : en:Chapter.07
00:45:45.868                     : en:Chapter.08
00:54:45.407                     : en:Chapter.09
00:58:58.868                     : en:Chapter.10
01:03:57.041                     : en:Chapter.11
01:13:44.753                     : en:Chapter.12
01:20:59.729                     : en:Chapter.13
01:27:09.599                     : en:Chapter.14
01:32:09.649                     : en:Chapter.15
01:38:30.321                     : en:Chapter.16
[Profile]  [PM] 
Display posts:    
Reply to topic

Current time is: 28-May 05:51

All times are UTC + 2



You cannot post new topics in this forum
You cannot reply to topics in this forum
You cannot edit your posts in this forum
You cannot delete your posts in this forum
You cannot vote in polls in this forum
You cannot attach files in this forum
You cannot download files in this forum