Старая добрая оргия / A Good Old Fashioned Orgy (Алекс Грегори / Alex Gregory, Питер Хайк / Peter Huyck) [2011, США, комедия, BDRip 1080p] DUB + Original Eng + Rus Sub

Reply to topic
 
Author
Message

Satyr ®

Gender: Unknown

Longevity: 11 years

Posts: 15402

Reputation: 55 [+] [-]

Satyr · Post 27-Feb-2012 22:41

[Quote] 

Старая добрая оргия / A Good Old Fashioned Orgy
--Страна: США
Студия: Endgame Entertainment, Aura Film Partnership, Fierce Entertainment
Жанр: комедия
Год выпуска: 2011
Продолжительность: 01:34:40--Перевод: Дублированный [лицензия]
Cубтитры: русские
Оригинальная аудиодорожка: английская--Режиссер: Алекс Грегори / Alex Gregory, Питер Хайк / Peter Huyck
В ролях: Джейсон Судейкис, Лесли Бибб, Лэйк Белл, Мишелль Борт, Ник Кролл, Тайлер Лэбин, Анджела Сарафян, Линдсэй Слоун, Мартин Старр, Люси Панч--Описание: У тридцатилетнего Эрика неприятность: отец решил продать семейный загородный дом в Хэмптоне! Тот самый дом, в котором вот уже много лет подряд Эрик проводит грандиозные тематические вечеринки. Очевидно, теперь Эрику придется наконец-то повзрослеть и «взяться за ум». Но перед тем как дом уйдет с молотка, Эрик и группа друзей решают устроить заключительную, самую сумасшедшую прощальную вечеринку - Старую добрую оргию...-- | imdb | kinopoisk | Сэмпл--Тип релиза: BDRip 1080p [A.Good.Old.Fashioned.Orgy.2011.BluRay.RC.1080p.x264.DTS-DAViDSK8]
Контейнер: MKV
Видео: 11,3 mb/s, 1920x1040, 24 fps, V_MPEG4/ISO/AVC
Аудио: AC3, 640 kb/s, 5.1, 48 kHz, 16 bits [rus]
Аудио 2: AC3, 640 kb/s, 5.1, 48 kHz, 16 bits [eng]
Формат субтитров: softsub [SRT]

MediaInfo

General
Complete name : A.Good.Old.Fashioned.Orgy.2011.D.BDRip.1080p.IRONCLUB.mkv
Format : Matroska
File size : 8.28 GiB
Duration : 1h 34mn
Overall bit rate : 12.5 Mbps
Movie name : IRONCLUB
Encoded date : UTC 2012-02-02 18:22:50
Writing application : mkvmerge v4.9.1 ('Ich will') сборка от Jul 11 2011 23:53:15
Writing library : libebml v1.2.1 + libmatroska v1.1.1
Video
ID : 1
Format : AVC
Format/Info : Advanced Video Codec
Format profile : High@L4.1
Format settings, CABAC : Yes
Format settings, ReFrames : 4 frames
Codec ID : V_MPEG4/ISO/AVC
Duration : 1h 34mn
Bit rate : 11.3 Mbps
Width : 1 920 pixels
Height : 1 040 pixels
Display aspect ratio : 16:9
Frame rate : 24.000 fps
Color space : YUV
Chroma subsampling : 4:2:0
Bit depth : 8 bits
Scan type : Progressive
Bits/(Pixel*Frame) : 0.235
Stream size : 7.27 GiB (88%)
Title : A.Good.Old.Fashioned.Orgy.2011.BluRay.RC.1080p.x264.DTS-DAViDSK8
Writing library : x264 core 116 r2074 2641b9e
Encoding settings : cabac=1 / ref=4 / deblock=1:-3:-3 / analyse=0x3:0x113 / me=umh / subme=10 / psy=1 / psy_rd=1.00:0.00 / mixed_ref=1 / me_range=32 / chroma_me=1 / trellis=2 / 8x8dct=1 / cqm=0 / deadzone=21,11 / fast_pskip=0 / chroma_qp_offset=-2 / threads=12 / sliced_threads=0 / slices=4 / nr=0 / decimate=0 / interlaced=0 / bluray_compat=0 / constrained_intra=0 / bframes=10 / b_pyramid=2 / b_adapt=2 / b_bias=0 / direct=2 / weightb=1 / open_gop=0 / weightp=2 / keyint=250 / keyint_min=24 / scenecut=40 / intra_refresh=0 / rc_lookahead=50 / rc=2pass / mbtree=1 / bitrate=11255 / ratetol=4.0 / qcomp=0.60 / qpmin=0 / qpmax=69 / qpstep=4 / cplxblur=20.0 / qblur=0.5 / vbv_maxrate=50000 / vbv_bufsize=40000 / nal_hrd=none / ip_ratio=1.40 / aq=1:1.00
Language : English
Audio #1
ID : 2
Format : AC-3
Format/Info : Audio Coding 3
Mode extension : CM (complete main)
Codec ID : A_AC3
Duration : 1h 34mn
Bit rate mode : Constant
Bit rate : 640 Kbps
Channel(s) : 6 channels
Channel positions : Front: L C R, Side: L R, LFE
Sampling rate : 48.0 KHz
Bit depth : 16 bits
Stream size : 433 MiB (5%)
Title : DUB
Language : Russian
Audio #2
ID : 3
Format : AC-3
Format/Info : Audio Coding 3
Mode extension : CM (complete main)
Codec ID : A_AC3
Duration : 1h 34mn
Bit rate mode : Constant
Bit rate : 640 Kbps
Channel(s) : 6 channels
Channel positions : Front: L C R, Side: L R, LFE
Sampling rate : 48.0 KHz
Bit depth : 16 bits
Stream size : 433 MiB (5%)
Title : Original
Language : English
Text
ID : 4
Format : UTF-8
Codec ID : S_TEXT/UTF8
Codec ID/Info : UTF-8 Plain Text
Title : Russian
Language : Russian
Menu
00:00:00.000 : en:00:00:00.000
00:10:43.125 : en:00:10:43.125
00:17:45.292 : en:00:17:45.292
00:25:05.542 : en:00:25:05.542
00:32:13.375 : en:00:32:13.375
00:39:47.375 : en:00:39:47.375
00:47:33.917 : en:00:47:33.917
00:55:11.667 : en:00:55:11.667
01:04:36.417 : en:01:04:36.417
01:13:02.792 : en:01:13:02.792
01:22:26.042 : en:01:22:26.042
01:30:12.917 : en:01:30:12.917

Скриншоты



[Profile]  [PM] 
Display posts:    
Reply to topic

Current time is: 03-Jun 15:53

All times are UTC + 2



You cannot post new topics in this forum
You cannot reply to topics in this forum
You cannot edit your posts in this forum
You cannot delete your posts in this forum
You cannot vote in polls in this forum
You cannot attach files in this forum
You cannot download files in this forum