Заражение / Contagion (Стивен Содерберг / Steven Soderbergh) [2011 г. США, ОАЭ. Триллер, драма. BDRemux 1080p]

Reply to topic
 
Author
Message

Oton ®

Gender: Unknown

Longevity: 8 years 8 months

Posts: 70

Reputation: 5 [+] [-]

Oton · Post 08-Mar-2012 19:23

[Quote] 

Заражение / Contagion-«Скоро мир будет инфицирован.»- Страна: США, ОАЭ
Жанр: Триллер, драма
Год выпуска: 2011
Продолжительность: 01:46:26-Перевод: Профессиональный (полное дублирование)
Формат субтитров: srt, pgs
Оригинальная аудиодорожка: Английская-Режиссёр: Стивен Содерберг / Steven Soderbergh-В ролях: Марион Котийяр, Мэтт Дэймон, Лоренс Фишбёрн, Джуд Лоу, Гвинет Пэлтроу, Кейт Уинслет, Брайан Крэнстон, Дженнифер Эль, Санаа Лэтэн, Тинг Яу Цуй-Описание:Международная организация врачей совместно с Центром по контролю и профилактике заболеваний США пытается помешать распространению смертельного вируса.-Доп. инфо: За дубляж и сабы спасибо и amazon-Тип релиза: BDRemux
Контейнер: MKV
Видео: MPEG-4 AVC / 16845 kbps / 1920x1080 / 23.976 fps / 16:9 / High Profile 4.1
Аудио 1: Русский дубляж / Dolby Digital / 5.1 / 640 kbps / 48 kHz
Аудио 2: Английский / DTS-HD MA / 5.1 / 48 kHz / 3633 kbps / 24-bit (DTS Core: 5.1 / 48 kHz / 1509 kbps / 24-bit)
Cубтитры 1: Русские BD srt (только надписи и пр.)
Cубтитры 2: Русские BD srt
Cубтитры 3: Английские srt
Cубтитры 4: Русские pgs
Cубтитры 5: Английские pgs
Чаптеры: есть
Сэмпл: СКАЧАТЬ-

MediaInfo

Полное имя                       : Contagion.2011.Blu-ray.1080p.AVC.Rus.Eng.mkv
Формат                           : Matroska
Версия формата                   : Version 2
Размер файла                     : 15,7 Гбайт
Продолжительность                : 1 ч. 46 м.
Режим общего битрейта            : Переменный
Общий поток                      : 21,2 Мбит/сек
Название фильма                  : HANSMER
Дата кодирования                 : UTC 2012-01-23 23:48:09
Программа кодирования            : mkvmerge v5.2.1 ('A Far Off Place') built on Jan  2 2012 23:21:10
Библиотека кодирования           : libebml v1.2.3 + libmatroska v1.3.0
Видео
Идентификатор                    : 1
Формат                           : AVC
Формат/Информация                : Advanced Video Codec
Профиль формата                  : High@L4.1
Параметр CABAC формата           : Да
Параметр ReFrames формата        : 2 кадра
Режим смешивания                 : Container profile=Unknown@0.0
Идентификатор кодека             : V_MPEG4/ISO/AVC
Продолжительность                : 1 ч. 46 м.
Вид битрейта                     : Переменный
Битрейт                          : 18,6 Мбит/сек
Ширина                           : 1920 пикселей
Высота                           : 1080 пикселей
Соотношение сторон               : 16:9
Частота кадров                   : 23,976 кадра/сек
Цветовое пространство            : YUV
Субдискретизация насыщенности    : 4:2:0
Битовая глубина                  : 8 бит
Тип развёртки                    : Прогрессивная
Бит/(Пиксели*Кадры)              : 0.373
Размер потока                    : 13,8 Гбайт (88%)
Заголовок                        : 16845 kbps
Язык                             : English
Аудио #1
Идентификатор                    : 2
Формат                           : AC-3
Формат/Информация                : Audio Coding 3
Расширение режима                : CM (complete main)
Идентификатор кодека             : A_AC3
Продолжительность                : 1 ч. 46 м.
Вид битрейта                     : Постоянный
Битрейт                          : 640 Кбит/сек
Каналы                           : 6 каналов
Расположение каналов             : Front: L C R, Side: L R, LFE
Частота                          : 48,0 КГц
Битовая глубина                  : 16 бит
Метод сжатия                     : С потерями
Размер потока                    : 487 Мбайт (3%)
Язык                             : Russian
Аудио #2
Идентификатор                    : 3
Формат                           : DTS
Формат/Информация                : Digital Theater Systems
Профиль формата                  : MA / Core
Идентификатор кодека             : A_DTS
Продолжительность                : 1 ч. 46 м.
Вид битрейта                     : Переменный
Битрейт                          : 1561 Кбит/сек / 1510 Кбит/сек
Каналы                           : 6 каналов
Расположение каналов             : Front: L C R, Side: L R, LFE
Частота                          : 48,0 КГц
Битовая глубина                  : 24 бит
Метод сжатия                     : Без потерь / Lossy
Заголовок                        : DTS-HD MA 5.1 @ 3633 kbps
Язык                             : English
Текст #1
Идентификатор                    : 4
Формат                           : UTF-8
Идентификатор кодека             : S_TEXT/UTF8
Идентификатор кодека/Информация  : UTF-8 Plain Text
Заголовок                        : Forced
Язык                             : Russian
Текст #2
Идентификатор                    : 5
Формат                           : UTF-8
Идентификатор кодека             : S_TEXT/UTF8
Идентификатор кодека/Информация  : UTF-8 Plain Text
Заголовок                        : Full
Язык                             : Russian
Текст #3
Идентификатор                    : 6
Формат                           : UTF-8
Идентификатор кодека             : S_TEXT/UTF8
Идентификатор кодека/Информация  : UTF-8 Plain Text
Язык                             : English
Текст #4
Идентификатор                    : 7
Формат                           : PGS
Идентификатор кодека             : S_HDMV/PGS
Идентификатор кодека/Информация  : The same subtitle format used on BDs/HD-DVDs
Заголовок                        : PGS
Язык                             : Russian
Текст #5
Идентификатор                    : 8
Формат                           : PGS
Идентификатор кодека             : S_HDMV/PGS
Идентификатор кодека/Информация  : The same subtitle format used on BDs/HD-DVDs
Заголовок                        : PGS
Язык                             : English
Меню
00:00:00.000                     : en:Chapter 1
00:04:33.356                     : en:Chapter 2
00:07:26.780                     : en:Chapter 3
00:11:08.960                     : en:Chapter 4
00:14:20.818                     : en:Chapter 5
00:16:01.043                     : en:Chapter 6
00:17:44.814                     : en:Chapter 7
00:20:15.464                     : en:Chapter 8
00:22:23.634                     : en:Chapter 9
00:24:11.909                     : en:Chapter 10
00:26:55.781                     : en:Chapter 11
00:30:31.997                     : en:Chapter 12
00:34:17.097                     : en:Chapter 13
00:36:35.026                     : en:Chapter 14
00:38:40.735                     : en:Chapter 15
00:41:28.236                     : en:Chapter 16
00:42:51.068                     : en:Chapter 17
00:46:55.146                     : en:Chapter 18
00:49:49.403                     : en:Chapter 19
00:52:00.951                     : en:Chapter 20
00:53:57.609                     : en:Chapter 21
00:57:30.364                     : en:Chapter 22
01:00:54.234                     : en:Chapter 23
01:03:22.716                     : en:Chapter 24
01:07:42.392                     : en:Chapter 25
01:10:21.259                     : en:Chapter 26
01:12:34.225                     : en:Chapter 27
01:15:35.322                     : en:Chapter 28
01:18:10.227                     : en:Chapter 29
01:22:34.032                     : en:Chapter 30
01:25:23.410                     : en:Chapter 31
01:31:28.358                     : en:Chapter 32
01:34:35.295                     : en:Chapter 33
01:36:10.556                     : en:Chapter 34
01:41:28.332                     : en:Chapter 35
[Profile]  [PM] 
Display posts:    
Reply to topic

Current time is: 25-May 19:54

All times are UTC + 2



You cannot post new topics in this forum
You cannot reply to topics in this forum
You cannot edit your posts in this forum
You cannot delete your posts in this forum
You cannot vote in polls in this forum
You cannot attach files in this forum
You cannot download files in this forum