Время / In Time (Эндрю Никкол / Andrew Niccol) [2011 г. США. Фантастика, триллер, драма, мелодрама, криминал. BDRemux 1080p]

Reply to topic
 
Author
Message

Oton ®

Gender: Unknown

Longevity: 8 years 8 months

Posts: 70

Reputation: 5 [+] [-]

Oton · Post 08-Mar-2012 19:46

[Quote] 

Время / In Time-«Живи вечно или умри, пытаясь»- Страна: США
Жанр: Фантастика, триллер, драма, мелодрама, криминал
Год выпуска: 2011
Продолжительность: 01:49:17-Перевод: Профессиональный (полное дублирование)
Формат субтитров: srt, pgs
Оригинальная аудиодорожка: Английская-Режиссёр: Эндрю Никкол / Andrew Niccol-В ролях: Джастин Тимберлэйк, Аманда Сайфред, Алекс Петтифер, Киллиан Мёрфи, Оливия Уайлд, Шайло Оствальд, Джонни Галэки, Колин МакГерк, Уилл Харрис, Майкл Уильям Фриман.-Описание: Добро пожаловать в мир, где время стало единственной и самой твердой валютой, где люди генетически запрограммированы так, что в 25 лет перестают стареть. Правда, последующие годы стоят денег. И вот богатые становятся практически бессмертными, а бедные, как всегда, обречены сражаться за жизнь.
Уилл, бунтарь из гетто, несправедливо обвинен в убийстве с целью грабежа времени и вынужден, захватив заложницу, пуститься в бега. Так, ежеминутно рискуя жизнью, эти двое становятся грозным оружием в борьбе с системой. Но вот вопрос: кто кого? А может быть, в дело вмешается третья сила?..-Исходник: In Time 2011 1080p Blu-ray AVC DTS-HD MA 5.1-HDChina
Тип релиза: BDRemux
Контейнер: MKV
Видео: MPEG-4 AVC / 31112 kbps / 1920х1080 / 23.976 fps / 16:9 / High Profile 4.1
Аудио 1: Русский дубляж / DTS / 5.1 / 48 kHz / 768 kbps
Аудио 2: Украинский дубляж / Dolby Digital / 5.1 / 48 kHz / 384 kbps
Аудио 3: Английский / DTS-HD MA / 5.1 / 48 kHz / 3815 kbps /24-bit (DTS Core: 5.1 / 48 kHz / 1509 kbps / 24-bit)
Cубтитры 1: Русские srt (только надписи и пр.)
Cубтитры 2: Русские srt
Cубтитры 3: Английские SDH srt
Cубтитры 4: Английские SDH pgs
Чаптеры: есть
Сэмпл: СКАЧАТЬ-

MediaInfo

Полное имя                       : In.Time.2011.Blu-ray.1080p.AVC.Rus.Ukr.Eng.mkv
Формат                           : Matroska
Версия формата                   : Version 2
Размер файла                     : 27,4 Гбайт
Продолжительность                : 1 ч. 49 м.
Режим общего битрейта            : Переменный
Общий поток                      : 35,9 Мбит/сек
Название фильма                  : HANSMER
Дата кодирования                 : UTC 2012-01-24 11:59:29
Программа кодирования            : mkvmerge v5.2.1 ('A Far Off Place') built on Jan  2 2012 23:21:10
Библиотека кодирования           : libebml v1.2.3 + libmatroska v1.3.0
Видео
Идентификатор                    : 1
Формат                           : AVC
Формат/Информация                : Advanced Video Codec
Профиль формата                  : High@L4.1
Параметр CABAC формата           : Да
Параметр ReFrames формата        : 4 кадра
Режим смешивания                 : Container profile=Unknown@0.0
Идентификатор кодека             : V_MPEG4/ISO/AVC
Продолжительность                : 1 ч. 49 м.
Вид битрейта                     : Переменный
Битрейт                          : 32,5 Мбит/сек
Максимальный битрейт             : 32,5 Мбит/сек
Ширина                           : 1920 пикселей
Высота                           : 1080 пикселей
Соотношение сторон               : 16:9
Частота кадров                   : 23,976 кадра/сек
Цветовое пространство            : YUV
Субдискретизация насыщенности    : 4:2:0
Битовая глубина                  : 8 бит
Тип развёртки                    : Прогрессивная
Бит/(Пиксели*Кадры)              : 0.653
Размер потока                    : 24,8 Гбайт (90%)
Заголовок                        : 31112 kbps
Язык                             : English
Аудио #1
Идентификатор                    : 2
Формат                           : DTS
Формат/Информация                : Digital Theater Systems
Идентификатор кодека             : A_DTS
Продолжительность                : 1 ч. 49 м.
Вид битрейта                     : Постоянный
Битрейт                          : 755 Кбит/сек
Каналы                           : 6 каналов
Расположение каналов             : Front: L C R, Side: L R, LFE
Частота                          : 48,0 КГц
Битовая глубина                  : 24 бит
Метод сжатия                     : С потерями
Размер потока                    : 590 Мбайт (2%)
Язык                             : Russian
Аудио #2
Идентификатор                    : 3
Формат                           : AC-3
Формат/Информация                : Audio Coding 3
Расширение режима                : CM (complete main)
Идентификатор кодека             : A_AC3
Продолжительность                : 1 ч. 49 м.
Вид битрейта                     : Постоянный
Битрейт                          : 384 Кбит/сек
Каналы                           : 6 каналов
Расположение каналов             : Front: L C R, Side: L R, LFE
Частота                          : 48,0 КГц
Битовая глубина                  : 16 бит
Метод сжатия                     : С потерями
Размер потока                    : 300 Мбайт (1%)
Язык                             : Ukrainian
Аудио #3
Идентификатор                    : 4
Формат                           : DTS
Формат/Информация                : Digital Theater Systems
Профиль формата                  : MA / Core
Идентификатор кодека             : A_DTS
Продолжительность                : 1 ч. 49 м.
Вид битрейта                     : Переменный
Битрейт                          : 1561 Кбит/сек / 1510 Кбит/сек
Каналы                           : 6 каналов
Расположение каналов             : Front: L C R, Side: L R, LFE
Частота                          : 48,0 КГц
Битовая глубина                  : 24 бит
Метод сжатия                     : Без потерь / Lossy
Заголовок                        : DTS-HD MA 5.1 @ 3815 kbps
Язык                             : English
Текст #1
Идентификатор                    : 5
Формат                           : UTF-8
Идентификатор кодека             : S_TEXT/UTF8
Идентификатор кодека/Информация  : UTF-8 Plain Text
Заголовок                        : Forced
Язык                             : Russian
Текст #2
Идентификатор                    : 6
Формат                           : UTF-8
Идентификатор кодека             : S_TEXT/UTF8
Идентификатор кодека/Информация  : UTF-8 Plain Text
Язык                             : Russian
Текст #3
Идентификатор                    : 7
Формат                           : UTF-8
Идентификатор кодека             : S_TEXT/UTF8
Идентификатор кодека/Информация  : UTF-8 Plain Text
Язык                             : English
Текст #4
Идентификатор                    : 8
Формат                           : PGS
Идентификатор кодека             : S_HDMV/PGS
Идентификатор кодека/Информация  : The same subtitle format used on BDs/HD-DVDs
Заголовок                        : PGS
Язык                             : English
Меню
00:00:00.000                     : en:Chapter 1
00:05:54.271                     : en:Chapter 2
00:10:50.733                     : en:Chapter 3
00:18:58.095                     : en:Chapter 4
00:22:16.377                     : en:Chapter 5
00:25:30.446                     : en:Chapter 6
00:29:51.915                     : en:Chapter 7
00:34:41.746                     : en:Chapter 8
00:38:24.886                     : en:Chapter 9
00:41:23.898                     : en:Chapter 10
00:44:44.724                     : en:Chapter 11
00:48:08.302                     : en:Chapter 12
00:51:32.548                     : en:Chapter 13
00:53:56.150                     : en:Chapter 14
00:56:16.873                     : en:Chapter 15
01:00:25.372                     : en:Chapter 16
01:05:41.146                     : en:Chapter 17
01:08:57.800                     : en:Chapter 18
01:11:19.484                     : en:Chapter 19
01:14:05.107                     : en:Chapter 20
01:16:48.979                     : en:Chapter 21
01:20:20.983                     : en:Chapter 22
01:22:44.293                     : en:Chapter 23
01:27:17.107                     : en:Chapter 24
01:29:22.399                     : en:Chapter 25
01:33:26.017                     : en:Chapter 26
01:37:16.956                     : en:Chapter 27
01:42:56.462                     : en:Chapter 28
[Profile]  [PM] 
Display posts:    
Reply to topic

Current time is: 03-Jun 15:17

All times are UTC + 2



You cannot post new topics in this forum
You cannot reply to topics in this forum
You cannot edit your posts in this forum
You cannot delete your posts in this forum
You cannot vote in polls in this forum
You cannot attach files in this forum
You cannot download files in this forum