Профессионал / Killer Elite (Гэри МакКендри / Gary McKendry) [2011 г. США, Австралия. Боевик, триллер. BDRemux 1080p]

Reply to topic
 
Author
Message

Oton ®

Gender: Unknown

Longevity: 8 years 8 months

Posts: 70

Reputation: 5 [+] [-]

Oton · Post 08-Mar-2012 20:29

[Quote] 

Профессионал / Killer Elite-«May the Best Man Live»- Страна: США, Австралия
Жанр:Боевик, триллер.
Год выпуска: 2011
Продолжительность: 01:56:42-Перевод: Профессиональный (полное дублирование)
Формат субтитров: srt, pgs
Оригинальная аудиодорожка: Английская-Режиссёр: Гэри МакКендри / Gary McKendry-В ролях: Джейсон Стэтхэм, Клайв Оуэн, Роберт Де Ниро, Ивонн Страховски, Доминик Пурселл, Адевале Акиннуойе-Агбадже, Майкл Дорман, Грант Боулер, Бен Мендельсон, Кристи Барнс Каллен-Описание: Джейсон Стэтхем в роли профессионального киллера, который по заказу арабского шейха ликвидирует бывших спецназовцев британских ВВС, когда-то участвовавших в военной операции в Омане. Охоту на него открывает глава секретной правительственной спецслужбы, который понимает, что ему придется иметь дело с лучшими из наемных убийц, настоящей элитой киллеров…-Тип релиза: BDRemux
Контейнер: MKV
Видео: MPEG-4 AVC / 31047 kbps / 1080p / 23,976 fps / 16:9 / High Profile 4.1
Аудио 1: Русский дубляж / Dolby Digital / 5.1 / 640 kbps / 48 kHz
Аудио 2: Английский / DTS-HD MA / 5.1 / 48 kHz / 3920 kbps /24-bit (DTS Core: 5.1 / 48 kHz / 1509 kbps / 24-bit)
Cубтитры 1: Русские srt
Cубтитры 2: Английские SDH srt
Cубтитры 3: Английские SDH pgs
Чаптеры: есть
Сэмпл: СКАЧАТЬ-

MediaInfo

Полное имя                       : Killer.Elite.2011.Blu-ray.1080p.AVC.Rus.Eng.mkv
Формат                           : Matroska
Версия формата                   : Version 2
Размер файла                     : 29,0 Гбайт
Продолжительность                : 1 ч. 56 м.
Общий поток                      : 35,5 Мбит/сек
Название фильма                  : HANSMER
Дата кодирования                 : UTC 2012-01-27 18:39:43
Программа кодирования            : mkvmerge v5.2.1 ('A Far Off Place') built on Jan  2 2012 23:21:10
Библиотека кодирования           : libebml v1.2.3 + libmatroska v1.3.0
Видео
Идентификатор                    : 1
Формат                           : AVC
Формат/Информация                : Advanced Video Codec
Профиль формата                  : High@L4.1
Параметр CABAC формата           : Да
Параметр ReFrames формата        : 4 кадра
Режим смешивания                 : Container profile=Unknown@0.0
Идентификатор кодека             : V_MPEG4/ISO/AVC
Продолжительность                : 1 ч. 56 м.
Вид битрейта                     : Переменный
Битрейт                          : 32,6 Мбит/сек
Максимальный битрейт             : 35,0 Мбит/сек
Ширина                           : 1920 пикселей
Высота                           : 1080 пикселей
Соотношение сторон               : 16:9
Частота кадров                   : 23,976 кадра/сек
Цветовое пространство            : YUV
Субдискретизация насыщенности    : 4:2:0
Битовая глубина                  : 8 бит
Тип развёртки                    : Прогрессивная
Бит/(Пиксели*Кадры)              : 0.656
Размер потока                    : 26,6 Гбайт (92%)
Заголовок                        : 31047 kbps
Язык                             : English
Основные цвета                   : BT.709-5, BT.1361, IEC 61966-2-4, SMPTE RP177
Характеристики трансфера         : BT.709-5, BT.1361
Коэффициенты матрицы             : BT.709-5, BT.1361, IEC 61966-2-4 709, SMPTE RP177
Аудио #1
Идентификатор                    : 2
Формат                           : AC-3
Формат/Информация                : Audio Coding 3
Расширение режима                : CM (complete main)
Идентификатор кодека             : A_AC3
Продолжительность                : 1 ч. 56 м.
Вид битрейта                     : Постоянный
Битрейт                          : 640 Кбит/сек
Каналы                           : 6 каналов
Расположение каналов             : Front: L C R, Side: L R, LFE
Частота                          : 48,0 КГц
Битовая глубина                  : 16 бит
Метод сжатия                     : С потерями
Размер потока                    : 534 Мбайт (2%)
Язык                             : Russian
Аудио #2
Идентификатор                    : 3
Формат                           : DTS
Формат/Информация                : Digital Theater Systems
Профиль формата                  : MA / Core
Идентификатор кодека             : A_DTS
Продолжительность                : 1 ч. 56 м.
Вид битрейта                     : Переменный
Битрейт                          : 1576 Кбит/сек / 1510 Кбит/сек
Каналы                           : 6 каналов
Расположение каналов             : Front: L C R, Side: L R, LFE
Частота                          : 48,0 КГц
Битовая глубина                  : 24 бит
Метод сжатия                     : Без потерь / Lossy
Заголовок                        : DTS-HD MA 5.1 @ 3920 kbps
Язык                             : English
Текст #1
Идентификатор                    : 4
Формат                           : UTF-8
Идентификатор кодека             : S_TEXT/UTF8
Идентификатор кодека/Информация  : UTF-8 Plain Text
Язык                             : Russian
Текст #2
Идентификатор                    : 5
Формат                           : UTF-8
Идентификатор кодека             : S_TEXT/UTF8
Идентификатор кодека/Информация  : UTF-8 Plain Text
Заголовок                        : SDH
Язык                             : English
Текст #3
Идентификатор                    : 6
Формат                           : PGS
Режим смешивания                 : zlib
Идентификатор кодека             : S_HDMV/PGS
Идентификатор кодека/Информация  : The same subtitle format used on BDs/HD-DVDs
Заголовок                        : PGS SDH
Язык                             : English
Меню
00:00:00.000                     : en:Chapter 1
00:06:11.580                     : en:Chapter 2
00:12:40.385                     : en:Chapter 3
00:18:18.222                     : en:Chapter 4
00:24:33.389                     : en:Chapter 5
00:30:06.972                     : en:Chapter 6
00:36:41.324                     : en:Chapter 7
00:41:01.417                     : en:Chapter 8
00:46:36.293                     : en:Chapter 9
00:51:37.052                     : en:Chapter 10
00:57:32.532                     : en:Chapter 11
01:02:14.272                     : en:Chapter 12
01:07:04.896                     : en:Chapter 13
01:12:39.981                     : en:Chapter 14
01:20:23.652                     : en:Chapter 15
01:26:27.474                     : en:Chapter 16
01:32:30.628                     : en:Chapter 17
01:41:02.807                     : en:Chapter 18
01:46:07.278                     : en:Chapter 19
01:50:26.203                     : en:Chapter 20
[Profile]  [PM] 
Display posts:    
Reply to topic

Current time is: 25-May 19:32

All times are UTC + 2



You cannot post new topics in this forum
You cannot reply to topics in this forum
You cannot edit your posts in this forum
You cannot delete your posts in this forum
You cannot vote in polls in this forum
You cannot attach files in this forum
You cannot download files in this forum