Интуиция / Serendipity (Питер Челсом / Peter Chelsom) [2001, мелодрама, комедия, BDRemux 1080p] US

Reply to topic
 
Author
Message

Faust ®

Gender: Unknown

Longevity: 8 years 8 months

Posts: 14058

Reputation: 0 [+] [-]

Faust · Post 08-Mar-2012 22:49

[Quote] 

Интуиция / Serendipity
Год выпуска: 2001
Страна: США
Жанр: Мелодрама, комедия
Продолжительность: 01:30:58
Перевод:
Профессиональный (полное дублирование)
Профессиональный (многоголосый закадровый) Карусель
Профессиональный (многоголосый закадровый) с переиздания R1, сигнатура диска DVD5 L00022
Русские субтитры: есть (два варианта)
Режиссер: Питер Челсом
В ролях: Джон Кьюсак, Кейт Бекинсейл, Джереми Пивен, Молли Шеннон, Майкл Джуарино мл., Юджин Леви, Кристал Бок, Стефен Брюс, Дэвид Спэрроу, Гари Гербрандт
Описание: В один суматошный зимний день, посреди нью-йоркской толпы Джонатан встретил Сару. Два незнакомых человека в объятом предновогодней лихорадкой городе обнаруживают, что их неодолимо тянет друг к другу.
И они решают проверить судьбу: он пишет свой телефон на банкноте, она — в книге. Купюру разменивают, а книгу сдают букинисту. Джонатан и Сара уверены, что скоро увидятся вновь. Но коварная судьба распорядилась по-своему.
Доп. информация:

User Rating: 6.7/10 (42,254 votes)
Хороший фильм, рекомендую.
За Blu-Ray Disc и чистый голос многоголоски Карусели большое спасибо .
Сэмпл.

Качество: BDRemux (источник - Serendipity 2001 1080p US Blu-ray AVC DTS-HD MA 5.1-HDCLUB)
Формат: MKV
Видео кодек: H.264
Аудио кодек: AC3, DTS-HD
Видео: 1920x1080, 23359 kbps, 23.976 fps
Аудио1: Русский AC3 5.1, 48 KHz, 448 kbps профессиональный (полное дублирование)
Аудио2: Русский DTS-HD Master Audio 5.1, 48 KHz, 16 bit, 1984 kbps, Lossless (DTS Core: 5.1, 48 KHz, 16bit, 1536 kbps) профессиональный (многоголосый закадровый) Карусель
Аудио3: Русский AC3 5.1, 48 KHz, 384 kbps профессиональный (многоголосый закадровый) с переиздания R1, сигнатура диска DVD5 L00022
Аудио4: Английский DTS-HD Master Audio 5.1, 48 KHz, 16 bit, 1941 kbps, Lossless (DTS Core: 5.1, 48 KHz, 16bit, 1536 kbps)
Аудио5: Английский AC3 2.0, 48 KHz, 192 kbps (комментарии режиссёра)
Субтитры: Русские (с лицензии), русские (авторские), английские, английские (текст+песни), английские (SDH), английские (PGS), английские (PGS, SDH), испанские (PGS)
Скриншоты:


MediaInfo

General
Unique ID : 200642200988323562169726757564399572961 (0x96F24844C1452DCC9A1DFC9B3F2157E1)
Complete name : Serendipity.2001.BD.Remux.1080p.h264.3xRus.Eng.Commentary.mkv
Format : Matroska
Format version : Version 2
File size : 18.0 GiB
Duration : 1h 30mn
Overall bit rate : 28.4 Mbps
Encoded date : UTC 2012-01-16 15:44:34
Writing application : mkvmerge v5.2.1 ('A Far Off Place') built on Jan 7 2012 21:56:27
Writing library : libebml v1.2.3 + libmatroska v1.3.0
Video
ID : 1
Format : AVC
Format/Info : Advanced Video Codec
Format profile : High@L4.1
Format settings, CABAC : Yes
Format settings, ReFrames : 4 frames
Muxing mode : Container profile=Unknown@0.0
Codec ID : V_MPEG4/ISO/AVC
Duration : 1h 30mn
Bit rate mode : Variable
Bit rate : 23.7 Mbps
Maximum bit rate : 35.0 Mbps
Width : 1 920 pixels
Height : 1 080 pixels
Display aspect ratio : 16:9
Frame rate : 23.976 fps
Standard : NTSC
Color space : YUV
Chroma subsampling : 4:2:0
Bit depth : 8 bits
Scan type : Progressive
Bits/(Pixel*Frame) : 0.476
Stream size : 15.0 GiB (83%)
Language : English
Color primaries : BT.709-5, BT.1361, IEC 61966-2-4, SMPTE RP177
Transfer characteristics : BT.709-5, BT.1361
Matrix coefficients : BT.709-5, BT.1361, IEC 61966-2-4 709, SMPTE RP177
Audio #1
ID : 2
Format : AC-3
Format/Info : Audio Coding 3
Mode extension : CM (complete main)
Codec ID : A_AC3
Duration : 1h 30mn
Bit rate mode : Constant
Bit rate : 448 Kbps
Channel(s) : 6 channels
Channel positions : Front: L C R, Side: L R, LFE
Sampling rate : 48.0 KHz
Bit depth : 16 bits
Compression mode : Lossy
Stream size : 291 MiB (2%)
Title : Dub AC3 5.1 448 kbps
Language : Russian
Audio #2
ID : 3
Format : DTS
Format/Info : Digital Theater Systems
Format profile : MA / Core
Codec ID : A_DTS
Duration : 1h 30mn
Bit rate mode : Variable
Bit rate : 1 561 Kbps / 1 510 Kbps
Channel(s) : 6 channels
Channel positions : Front: L C R, Side: L R, LFE
Sampling rate : 48.0 KHz
Bit depth : 16 bits
Compression mode : Lossless / Lossy
Title : MVO (Karusel) DTS-HD Master Audio, 5.1, 1984 kbps, 16 bit, Lossless (1536 kbps core)
Language : Russian
Audio #3
ID : 4
Format : AC-3
Format/Info : Audio Coding 3
Mode extension : CM (complete main)
Codec ID : A_AC3
Duration : 1h 30mn
Bit rate mode : Constant
Bit rate : 384 Kbps
Channel(s) : 6 channels
Channel positions : Front: L C R, Side: L R, LFE
Sampling rate : 48.0 KHz
Bit depth : 16 bits
Compression mode : Lossy
Stream size : 250 MiB (1%)
Title : MVO (DVD signature L00022) AC3 5.1 384 kbps
Language : Russian
Audio #4
ID : 5
Format : DTS
Format/Info : Digital Theater Systems
Format profile : MA / Core
Codec ID : A_DTS
Duration : 1h 30mn
Bit rate mode : Variable
Bit rate : 1 561 Kbps / 1 510 Kbps
Channel(s) : 6 channels
Channel positions : Front: L C R, Side: L R, LFE
Sampling rate : 48.0 KHz
Bit depth : 16 bits
Compression mode : Lossless / Lossy
Title : DTS-HD Master Audio, 5.1, 1941 kbps, 16 bit, Lossless (1536 kbps core)
Language : English
Audio #5
ID : 6
Format : AC-3
Format/Info : Audio Coding 3
Mode extension : CM (complete main)
Codec ID : A_AC3
Duration : 1h 30mn
Bit rate mode : Constant
Bit rate : 192 Kbps
Channel(s) : 2 channels
Channel positions : Front: L R
Sampling rate : 48.0 KHz
Bit depth : 16 bits
Compression mode : Lossy
Stream size : 125 MiB (1%)
Title : Commentary with Director Peter Chelsom AC3 2.0 192 kbps
Language : English
Text #1
ID : 7
Format : UTF-8
Codec ID : S_TEXT/UTF8
Codec ID/Info : UTF-8 Plain Text
Title : Licence
Language : Russian
Text #2
ID : 8
Format : UTF-8
Codec ID : S_TEXT/UTF8
Codec ID/Info : UTF-8 Plain Text
Title : Unknown author; with songs
Language : Russian
Text #3
ID : 9
Format : UTF-8
Codec ID : S_TEXT/UTF8
Codec ID/Info : UTF-8 Plain Text
Language : English
Text #4
ID : 10
Format : UTF-8
Codec ID : S_TEXT/UTF8
Codec ID/Info : UTF-8 Plain Text
Title : With Songs
Language : English
Text #5
ID : 11
Format : UTF-8
Codec ID : S_TEXT/UTF8
Codec ID/Info : UTF-8 Plain Text
Title : SDH
Language : English
Text #6
ID : 12
Format : PGS
Muxing mode : zlib
Codec ID : S_HDMV/PGS
Codec ID/Info : The same subtitle format used on BDs/HD-DVDs
Title : PSG
Language : English
Text #7
ID : 13
Format : PGS
Muxing mode : zlib
Codec ID : S_HDMV/PGS
Codec ID/Info : The same subtitle format used on BDs/HD-DVDs
Title : SDH, PGS
Language : English
Text #8
ID : 14
Format : PGS
Muxing mode : zlib
Codec ID : S_HDMV/PGS
Codec ID/Info : The same subtitle format used on BDs/HD-DVDs
Title : PGS
Language : Spanish
Menu
00:00:00.000 : en:1. Opening Credits: "A Fortunate Accident"
00:08:37.350 : en: 2. Astrological Freckles
00:12:00.762 : en: 3. Forwarding Fate
00:17:52.655 : en: 4. A Toast to Soulmates
00:22:34.687 : en: 5. Magical Elements
00:26:37.221 : en: 6. Searching for Sara
00:32:18.186 : en: 7. "Mr. Good-Enough-for-Right-Now"
00:36:08.958 : en: 8. Good Salesmanship
00:39:24.904 : en: 9. "One Last Fling"
00:42:46.272 : en:10. Tracking Down Destiny
00:49:38.100 : en:11. Signs and Clues
00:59:31.026 : en:12. The Groom's Gift
01:07:54.570 : en:13. "Everything Happens for a Reason"
01:11:50.181 : en:14. "Is It Over?"
01:16:14.278 : en:15. "An Exquisite, Sublime Plan"
01:25:38.425 : en:16. End Credits
[Profile]  [PM] 
Display posts:    
Reply to topic

Current time is: 03-Jun 14:56

All times are UTC + 2



You cannot post new topics in this forum
You cannot reply to topics in this forum
You cannot edit your posts in this forum
You cannot delete your posts in this forum
You cannot vote in polls in this forum
You cannot attach files in this forum
You cannot download files in this forum