Несносные боссы / Horrible Bosses (Сет Гордон / Seth Gordon) [2011 г. США. Комедия, криминал. BDRemux 1080p] [2in1 Theatrical & Extended Cut]

Reply to topic
 
Author
Message

Faust ®

Gender: Unknown

Longevity: 8 years 8 months

Posts: 14058

Reputation: 0 [+] [-]

Faust · Post 08-Mar-2012 23:03

[Quote] 

Несносные боссы / Horrible Bosses [2in1 Theatrical & Extended Cut]- Страна: США
Жанр: Комедия, криминал
Год выпуска: 2011
Продолжительность: 01:37:44 + 01:45:36-Перевод 1: Профессиональный (дублированный)
Перевод 2: Любительский (одноголосый) А. Киреев (по переводу Гоблина)
Формат субтитров: srt
Оригинальная аудиодорожка: Английская-Режиссёр: Сет Гордон / Seth Gordon-В ролях: Джейсон Бейтман, Дженнифер Энистон, Колин Фаррелл, Йоан Гриффит, Кевин Спейси, Стив Виб, П.Дж. Бирн, Чарли Дэй, Линдсэй Слоун, Мишель Албала, Джейсон Судейкис, Реджинальд Баллард-Описание: Три главных героя вроде нормальные парни и славные труженики. Но их должностные обязанности давно выходят за рамки, и все хорошо, если бы не их вредные начальники, которые не дают покоя и все время чем-то недовольны. Когда такие «капризы» начинают вторгаться в личную жизнь и ставят под угрозу личное счастье, товарищи задумываются: не избавиться ли от назойливых, ужасных боссов?-Доп. инфо: По умолчанию показывает театральная версия, для переключения между версиями, выбрать в Haali media splitter Theatrical Cut или Extended Cut-Тип релиза: BDRemux
Контейнер: MKV
Видео: MPEG-4 AVC / 27201 kbps / 1920x1080 / 23,976 fps / 16:9 / High Profile 4.1
Аудио 1: Русский дубляж (+ А. Киреев на расширенные места) / Dolby Digital / 5.1 / 640 kbps / 48 kHz
Аудио 2: Русский одноголосый А. Киреев (на обе версии) / DTS / 5.1 / 1536 kbps / 48 kHz
Аудио 3: Русский дубляж (+ оригинал на расширенные места) / Dolby Digital / 5.1 / 640 kbps / 48 kHz
Аудио 4: Английский / DTS-HD MA / 5.1 / 3643 kbps / 48 kHz / 24-bit (DTS Core: 5.1 / 48 kHz / 1509 kbps / 24-bit)
Cубтитры 1: Русские (BD, на обе версии)
Cубтитры 2: Русские (Гоблин, на обе версии)
Cубтитры 3: Русские (для Аудио 3, только для расширенных мест)
Cубтитры 4: Английские SDH (BD, на обе версии)
Чаптеры: есть-

MediaInfo

Полное имя                       : Horrible.Bosses.2011.Blu-ray.2in1.1080p.AVC.Rus.Eng.mkv
Формат                           : Matroska
Версия формата                   : Version 2
Размер файла                     : 27,7 Гбайт
Продолжительность                : 1 ч. 57 м.
Режим общего битрейта            : Переменный
Общий поток                      : 33,6 Мбит/сек
Название фильма                  : HANSMER
Дата кодирования                 : UTC 2011-12-04 18:06:33
Программа кодирования            : mkvmerge v5.1.0 ('And so it goes') built on Nov 28 2011 23:58:28
Библиотека кодирования           : libebml v1.2.3 + libmatroska v1.3.0
TITLE                            : Extended Cut
Видео
Идентификатор                    : 1
Формат                           : AVC
Формат/Информация                : Advanced Video Codec
Профиль формата                  : High@L4.1
Параметр CABAC формата           : Да
Параметр ReFrames формата        : 2 кадра
Режим смешивания                 : Container profile=Unknown@0.0
Идентификатор кодека             : V_MPEG4/ISO/AVC
Продолжительность                : 1 ч. 57 м.
Вид битрейта                     : Переменный
Битрейт                          : 27,8 Мбит/сек
Ширина                           : 1920 пикселей
Высота                           : 1080 пикселей
Соотношение сторон               : 16:9
Частота кадров                   : 23,976 кадра/сек
Цветовое пространство            : YUV
Субдискретизация насыщенности    : 4:2:0
Битовая глубина                  : 8 бит
Тип развёртки                    : Прогрессивная
Бит/(Пиксели*Кадры)              : 0.559
Размер потока                    : 22,9 Гбайт (83%)
Заголовок                        : 27200 kbps
Язык                             : English
Аудио #1
Идентификатор                    : 2
Формат                           : AC-3
Формат/Информация                : Audio Coding 3
Расширение режима                : CM (complete main)
Идентификатор кодека             : A_AC3
Продолжительность                : 1 ч. 57 м.
Вид битрейта                     : Постоянный
Битрейт                          : 640 Кбит/сек
Каналы                           : 6 каналов
Расположение каналов             : Front: L C R, Side: L R, LFE
Частота                          : 48,0 КГц
Битовая глубина                  : 16 бит
Метод сжатия                     : С потерями
Размер потока                    : 540 Мбайт (2%)
Заголовок                        : Dub+Kireev
Язык                             : Russian
Аудио #2
Идентификатор                    : 3
Формат                           : DTS
Формат/Информация                : Digital Theater Systems
Идентификатор кодека             : A_DTS
Продолжительность                : 1 ч. 57 м.
Вид битрейта                     : Постоянный
Битрейт                          : 1510 Кбит/сек
Каналы                           : 6 каналов
Расположение каналов             : Front: L C R, Side: L R, LFE
Частота                          : 48,0 КГц
Битовая глубина                  : 24 бит
Метод сжатия                     : С потерями
Размер потока                    : 1,24 Гбайт (4%)
Заголовок                        : Kireev
Язык                             : Russian
Аудио #3
Идентификатор                    : 4
Формат                           : AC-3
Формат/Информация                : Audio Coding 3
Расширение режима                : CM (complete main)
Идентификатор кодека             : A_AC3
Продолжительность                : 1 ч. 57 м.
Вид битрейта                     : Постоянный
Битрейт                          : 640 Кбит/сек
Каналы                           : 6 каналов
Расположение каналов             : Front: L C R, Side: L R, LFE
Частота                          : 48,0 КГц
Битовая глубина                  : 16 бит
Метод сжатия                     : С потерями
Размер потока                    : 540 Мбайт (2%)
Заголовок                        : Dub
Язык                             : Russian
Аудио #4
Идентификатор                    : 5
Формат                           : DTS
Формат/Информация                : Digital Theater Systems
Профиль формата                  : MA / Core
Идентификатор кодека             : A_DTS
Продолжительность                : 1 ч. 57 м.
Вид битрейта                     : Переменный
Битрейт                          : 2365 Кбит/сек / 1510 Кбит/сек
Каналы                           : 6 каналов
Расположение каналов             : Front: L C R, Side: L R, LFE
Частота                          : 48,0 КГц
Битовая глубина                  : 24 бит
Метод сжатия                     : Без потерь / Lossy
Язык                             : English
Текст #1
Идентификатор                    : 6
Формат                           : UTF-8
Идентификатор кодека             : S_TEXT/UTF8
Идентификатор кодека/Информация  : UTF-8 Plain Text
Язык                             : Russian
Текст #2
Идентификатор                    : 7
Формат                           : UTF-8
Идентификатор кодека             : S_TEXT/UTF8
Идентификатор кодека/Информация  : UTF-8 Plain Text
Заголовок                        : Goblin
Язык                             : Russian
Текст #3
Идентификатор                    : 8
Формат                           : UTF-8
Идентификатор кодека             : S_TEXT/UTF8
Идентификатор кодека/Информация  : UTF-8 Plain Text
Заголовок                        : Extended only
Язык                             : Russian
Текст #4
Идентификатор                    : 9
Формат                           : UTF-8
Идентификатор кодека             : S_TEXT/UTF8
Идентификатор кодека/Информация  : UTF-8 Plain Text
Язык                             : English
Меню #1
Меню #2
[Profile]  [PM] 

bot · Post 28-May-2014 09:00 (after 2 years 2 months)

 
Display posts:    
Reply to topic

Current time is: 25-May 18:43

All times are UTC + 2



You cannot post new topics in this forum
You cannot reply to topics in this forum
You cannot edit your posts in this forum
You cannot delete your posts in this forum
You cannot vote in polls in this forum
You cannot attach files in this forum
You cannot download files in this forum