Боевой конь / War Horse (Стивен Спилберг / Steven Spielberg) [2011, США, драма, военный, BDRemux 1080p] Dub Sub Rus + Original Eng

Reply to topic
 
Author
Message

Anonym ®

Online

Gender: Unknown

Reputation: 55 [+] [-]

Anonym · Post 30-Apr-2012 23:00

[Quote] 

Боевой конь / War Horse Страна: США
Студия: DreamWorks SKG

Жанр: драма, военный
Год выпуска: 2011
Продолжительность: 02:26:39
Перевод: Профессиональный (дублированный) [Лицензия]
Cубтитры: русские(forced,full-R5,Voronine),украинские(forced,full-R5),английские (full,SDH)
Оригинальная аудиодорожка: английский
Режиссер: Стивен Спилберг / Steven Spielberg
В ролях: Эмили Уотсон, Дэвид Тьюлис, Питер Муллан, Нильс Ареструп, Джереми Ирвин, Том Хиддлстон, Бенедикт Камбербэтч, Тоби Кеббелл, Патрик Кеннеди

Описание: История невероятной дружбы мальчика Альберта и коня Джоуи.
Когда начинается Первая мировая, и Джоуи отправляют вместе с кавалерийским полком на поля сражений Франции, Альберт, несмотря на слишком юный для военной службы возраст, все равно уходит на фронт, чтобы найти и спасти друга.


Тип релиза: BDRemux 1080p
Контейнер: MKV
Видео: AVC,1920x1080,25228 Kbps,23.976 fps
Аудио 1: Russian:48 kHz, AC3, 3/2 (L,C,R,l,r) + LFE ch, ~384.00 kbps avg
Аудио 2: Ukrainian:48 kHz, AC3, 3/2 (L,C,R,l,r) + LFE ch, ~384.00 kbps avg
Аудио 3: English / DTS-HD Master Audio / 7.1 / 48 kHz / 4859 kbps / 24-bit (DTS Core: 5.1 / 48 kHz / 1509 kbps / 24-bit)
Чаптеры:есть

MediaInfo

General
Unique ID : 199905748392043303067365515499897553224 (0x9664725A2AB9CE7C94927E0AB4D70148)
Complete name : D:\War.Horse.2011.BDRemux 1080p.AVC.DTS-HD.MA5.1-CHDBits.mkv
Format : Matroska
Format version : Version 2
File size : 31.5 GiB
Duration : 2h 26mn
Overall bit rate mode : Variable
Overall bit rate : 30.7 Mbps
Movie name : -Talian-
Encoded date : UTC 2012-04-26 10:36:58
Writing application : mkvmerge v5.3.0 ('I could have danced') built on Feb 9 2012 10:38:07
Writing library : libebml v1.2.3 + libmatroska v1.3.0
Video
ID : 1
Format : AVC
Format/Info : Advanced Video Codec
Format profile : High@L4.1
Format settings, CABAC : Yes
Format settings, ReFrames : 4 frames
Codec ID : V_MPEG4/ISO/AVC
Duration : 2h 26mn
Bit rate mode : Variable
Bit rate : 27.7 Mbps
Maximum bit rate : 33.0 Mbps
Width : 1 920 pixels
Height : 1 080 pixels
Display aspect ratio : 16:9
Frame rate : 23.976 fps
Color space : YUV
Chroma subsampling : 4:2:0
Bit depth : 8 bits
Scan type : Progressive
Bits/(Pixel*Frame) : 0.558
Stream size : 28.4 GiB (90%)
Title : War.Horse.2011.BluRay.1080p.AVC.DTS-HD.MA5.1-CHDBits
Language : English
Default : No
Forced : No
Audio #1
ID : 2
Format : AC-3
Format/Info : Audio Coding 3
Mode extension : CM (complete main)
Format settings, Endianness : Big
Codec ID : A_AC3
Duration : 2h 26mn
Bit rate mode : Constant
Bit rate : 384 Kbps
Channel(s) : 6 channels
Channel positions : Front: L C R, Side: L R, LFE
Sampling rate : 48.0 KHz
Bit depth : 16 bits
Compression mode : Lossy
Stream size : 403 MiB (1%)
Title : DUB
Language : Russian
Default : No
Forced : No
Audio #2
ID : 3
Format : AC-3
Format/Info : Audio Coding 3
Mode extension : CM (complete main)
Format settings, Endianness : Big
Codec ID : A_AC3
Duration : 2h 26mn
Bit rate mode : Constant
Bit rate : 384 Kbps
Channel(s) : 6 channels
Channel positions : Front: L C R, Side: L R, LFE
Sampling rate : 48.0 KHz
Bit depth : 16 bits
Compression mode : Lossy
Stream size : 403 MiB (1%)
Title : DUB
Language : Ukrainian
Default : No
Forced : No
Audio #3
ID : 4
Format : DTS
Format/Info : Digital Theater Systems
Format profile : MA / Core
Codec ID : A_DTS
Duration : 2h 26mn
Bit rate mode : Variable
Bit rate : 1 606 Kbps / 1 510 Kbps
Channel(s) : 8 channels / 6 channels
Channel positions : Front: L C R, Side: L R, Back: L R, LFE / Front: L C R, Side: L R, LFE
Sampling rate : 48.0 KHz
Bit depth : 24 bits
Compression mode : Lossless / Lossy
Title : Original
Language : English
Default : No
Forced : No
Text #1
ID : 5
Format : UTF-8
Codec ID : S_TEXT/UTF8
Codec ID/Info : UTF-8 Plain Text
Title : Sub-forced
Language : Russian
Default : Yes
Forced : No
Text #2
ID : 6
Format : UTF-8
Codec ID : S_TEXT/UTF8
Codec ID/Info : UTF-8 Plain Text
Title : Sub-full-R5
Language : Russian
Default : No
Forced : No
Text #3
ID : 7
Format : UTF-8
Codec ID : S_TEXT/UTF8
Codec ID/Info : UTF-8 Plain Text
Title : Sub-voronine
Language : Russian
Default : No
Forced : No
Text #4
ID : 8
Format : UTF-8
Codec ID : S_TEXT/UTF8
Codec ID/Info : UTF-8 Plain Text
Title : Sub-forced
Language : Ukrainian
Default : No
Forced : No
Text #5
ID : 9
Format : UTF-8
Codec ID : S_TEXT/UTF8
Codec ID/Info : UTF-8 Plain Text
Title : Sub-R5
Language : Ukrainian
Default : No
Forced : No
Text #6
ID : 10
Format : UTF-8
Codec ID : S_TEXT/UTF8
Codec ID/Info : UTF-8 Plain Text
Title : Sub
Language : English
Default : No
Forced : No
Text #7
ID : 11
Format : UTF-8
Codec ID : S_TEXT/UTF8
Codec ID/Info : UTF-8 Plain Text
Title : Sub-SDH
Default : No
Forced : No
Menu
00:00:00.000 : en:Chapter 1
00:04:31.104 : en:Chapter 2
00:09:31.320 : en:Chapter 3
00:13:57.002 : en:Chapter 4
00:17:45.230 : en:Chapter 5
00:22:29.097 : en:Chapter 6
00:29:16.963 : en:Chapter 7
00:34:17.180 : en:Chapter 8
00:37:49.934 : en:Chapter 9
00:41:30.196 : en:Chapter 10
00:47:19.002 : en:Chapter 11
00:51:48.814 : en:Chapter 12
00:56:03.151 : en:Chapter 13
01:01:19.175 : en:Chapter 14
01:04:04.048 : en:Chapter 15
01:05:51.030 : en:Chapter 16
01:14:04.565 : en:Chapter 17
01:18:01.009 : en:Chapter 18
01:25:34.379 : en:Chapter 19
01:29:48.007 : en:Chapter 20
01:35:29.682 : en:Chapter 21
01:45:23.275 : en:Chapter 22
01:51:06.659 : en:Chapter 23
02:00:06.157 : en:Chapter 24
02:07:38.275 : en:Chapter 25
02:15:12.270 : en:Chapter 26
02:18:10.949 : en:Chapter 27


 
Display posts:    
Reply to topic

Current time is: 28-May 06:03

All times are UTC + 2



You cannot post new topics in this forum
You cannot reply to topics in this forum
You cannot edit your posts in this forum
You cannot delete your posts in this forum
You cannot vote in polls in this forum
You cannot attach files in this forum
You cannot download files in this forum