Пеликан / Nicostratos le pélican (Оливье Орле / Olivier Horlait) [2011, Франция, Греция, комедия, драма, семейный, BDRemux 1080p] Dub + Subs (rus, ukr)

Reply to topic
 
Author
Message

Anonym ®

Online

Gender: Unknown

Reputation: 55 [+] [-]

Anonym · Post 12-May-2012 23:25

[Quote] 

Пеликан / Nicostratos le pélican-«Удивительная история дружбы»-Год выпуска: 2011
Страна: Франция, Греция
Жанр: Комедия, драма, семейный
Продолжительность: 01:31:57
Перевод: Профессиональный (полное дублирование)
Русские субтитры: есть
Режиссер: Оливье Орле
В ролях: Эмир Кустурица, Тибо Ле Геллек, Джейд-Роуз Паркер, Франсуа-Ксавье Демезон, Геннадиос Пацис, Валериан де Вилленьюв, Ивис Нэдот, Нтинос Понтикопоулос, Димитрис Сарикизоуглоу, Сократис Пацикас
Описание: После смерти жены мужчина отказывается выходить на улицу и не хочет общаться с единственным сыном. Жизнь теряет смысл, перестает для него существовать. Однажды мальчик находит птенца пеликана, которого решает оставить у себя. Он выкармливает птицу, и между ними завязываются теплые дружеские отношения. Пеликан помогает мальчику вновь обрести своего отца и возродить его к жизни.
Доп. информация:

User Rating: 6.8/10 (162 votes)
Сэмпл.
Качество: BDRemux
Формат: MKV
Видео кодек: H.264
Аудио кодек: AC3, DTS-HD
Видео: 1920x1080, 26983 kbps, 24 fps
Аудио1: Русский AC3 5.1, 48 KHz, 384 kbps
Аудио2: Французский DTS-HD Master Audio 5.1, 48 KHz, 24 bit, 3785 kbps, Lossless (DTS Core: 5.1, 48 KHz, 24bit, 1536 kbps)
Субтитры: Русские, украинские

MediaInfo

General
Unique ID : 181074920817129584267399568925451784382 (0x8839C2DF2D903B669F2FD5BE142290BE)
Complete name : Nicostratos Le Pelican.2011.BD.Remux.1080p.h264.Rus.Fre.mkv
Format : Matroska
Format version : Version 2
File size : 20.0 GiB
Duration : 1h 31mn
Overall bit rate mode : Variable
Overall bit rate : 31.2 Mbps
Encoded date : UTC 2012-03-08 04:39:42
Writing application : mkvmerge v5.3.0 ('I could have danced') built on Mar 5 2012 16:04:53
Writing library : libebml v1.2.3 + libmatroska v1.3.0
Video
ID : 1
Format : AVC
Format/Info : Advanced Video Codec
Format profile : High@L4.1
Format settings, CABAC : Yes
Format settings, ReFrames : 4 frames
Muxing mode : Container profile=Unknown@0.0
Codec ID : V_MPEG4/ISO/AVC
Duration : 1h 31mn
Bit rate mode : Variable
Bit rate : 28.6 Mbps
Maximum bit rate : 38.0 Mbps
Width : 1 920 pixels
Height : 1 080 pixels
Display aspect ratio : 16:9
Frame rate : 24.000 fps
Standard : NTSC
Color space : YUV
Chroma subsampling : 4:2:0
Bit depth : 8 bits
Scan type : Progressive
Bits/(Pixel*Frame) : 0.574
Stream size : 18.4 GiB (92%)
Language : French
Default : Yes
Forced : No
Color primaries : BT.709-5, BT.1361, IEC 61966-2-4, SMPTE RP177
Transfer characteristics : BT.709-5, BT.1361
Matrix coefficients : BT.709-5, BT.1361, IEC 61966-2-4 709, SMPTE RP177
Audio #1
ID : 2
Format : AC-3
Format/Info : Audio Coding 3
Mode extension : CM (complete main)
Codec ID : A_AC3
Duration : 1h 31mn
Bit rate mode : Constant
Bit rate : 384 Kbps
Channel(s) : 6 channels
Channel positions : Front: L C R, Side: L R, LFE
Sampling rate : 48.0 KHz
Bit depth : 16 bits
Compression mode : Lossy
Stream size : 253 MiB (1%)
Title : Dub AC3 5.1 384 kbps
Language : Russian
Default : Yes
Forced : No
Audio #2
ID : 3
Format : DTS
Format/Info : Digital Theater Systems
Format profile : MA / Core
Codec ID : A_DTS
Duration : 1h 31mn
Bit rate mode : Variable
Bit rate : 1 561 Kbps / 1 510 Kbps
Channel(s) : 6 channels
Channel positions : Front: L C R, Side: L R, LFE
Sampling rate : 48.0 KHz
Bit depth : 16 bits
Compression mode : Lossless / Lossy
Title : DTS-HD Master Audio, 5.1, 3785 kbps, 24 bit, Lossless (1536 kbps core)
Language : French
Default : No
Forced : No
Text #1
ID : 4
Format : UTF-8
Codec ID : S_TEXT/UTF8
Codec ID/Info : UTF-8 Plain Text
Language : Russian
Default : No
Forced : No
Text #2
ID : 5
Format : UTF-8
Codec ID : S_TEXT/UTF8
Codec ID/Info : UTF-8 Plain Text
Language : Ukrainian
Default : No
Forced : No
Menu
00:00:00.000 : en:Chapter 1
00:09:23.375 : en:Chapter 2
00:20:06.250 : en:Chapter 3
00:30:33.083 : en:Chapter 4
00:42:02.042 : en:Chapter 5
00:52:53.125 : en:Chapter 6
01:02:23.000 : en:Chapter 7
01:12:04.708 : en:Chapter 8
01:21:48.167 : en:Chapter 9
 
Display posts:    
Reply to topic

Current time is: 28-May 05:56

All times are UTC + 2



You cannot post new topics in this forum
You cannot reply to topics in this forum
You cannot edit your posts in this forum
You cannot delete your posts in this forum
You cannot vote in polls in this forum
You cannot attach files in this forum
You cannot download files in this forum