Другой мир: Пробуждение / Underworld: Awakening (Монс Морлинд / Mans Marlind, Бьёрн Стейн / Björn Stein) [2012, США, Канада, боевик триллер, фэнтези, BDRemux 1080p] [US 2D]

Reply to topic
 
Author
Message

Anonym ®

Gender: Unknown

Reputation: 0 [+] [-]

Anonym · Post 17-Jun-2012 23:20

[Quote] 

-Другой мир: Пробуждение / Underworld: Awakening-Страна: США, Канада
Студия: Sony/Columbia
Жанр: боевик триллер, фэнтези
Год выпуска: 2012
Продолжительность: 01:28:34-Перевод: Профессиональный (дублированный) Blu-ray CEE
Cубтитры: Russian (Blu-ray CEE), Russian (Commentary), English (Full, Forced, Commentary)
Оригинальная аудиодорожка: английский-Режиссер: Монс Морлинд / Mans Marlind, Бьёрн Стейн / Björn Stein
В ролях: Кейт Бекинсейл, Стивен Ри, Майкл Или, Тео Джеймс, Индия Айли, Чарльз Дэнс, Сандрин Холт, Кристен Холден-Рид, Джейкоб Блэр, Адам Рейд-Описание: Вампир-воительница Селена (Кейт Бекинсэйл) после 12-ти лет пребывания в коматозном состоянии вырывается из стеклянной капсулы, и оказывается в мире, где человечество, обнаружив существование вампиров и ликанов, ведет жестокую тотальную войну на их полное уничтожение. Могущественная биотехническая корпорация «BioCom» проводит успешные эксперименты с целью создания популяции новых существ – суперликанов, чтобы использовать их для уничтожения клана бессмертных. Селин узнает о существовании дочери Ниссы — гибрида вампира и ликана, и всеми силами пытается противостоять планам «AntiGen», ради спасения своего рода.-Доп. информация:- -Тип релиза: BDRemux {Underworld Awakening 2012 US 2D BluRay 1080p AVC DTS-HD MA7.1-CHDBits} - СЭМПЛ
Контейнер: MKV
Видео: MPEG-4 AVC Video / 23962 kbps / 1080p / 23.976 fps / 16:9 / High Profile 4.1
Аудио: Dolby Digital Audio Russian 640 kbps 5.1 / 48 kHz
Аудио: Dolby Digital Audio Ukrainian 640 kbps 5.1 / 48 kHz
Аудио: DTS-HD Master Audio English 2927 kbps / 7.1 / 48 kHz / 16-bit (DTS Core: 5.1 / 48 kHz / 1509 kbps / 16-bit)
Аудио: Dolby Digital Audio English 192 kbps 2.0 / 48 kHz ||Directors Mans Marlind and Bjorn Stein, producers Richard Wright and Gary Lucchesi, executive producer and VFX-supervisor James McQuaide ||

CHDBits vs. HDCLUB


MI

General
Complete name                    : F:\  -= Фильмы =-\Другой мир. Пробуждение (2012. Underworld. Awakening).mkv
Format                           : Matroska
File size                        : 17.6 GiB
Duration                         : 1h 28mn
Overall bit rate                 : 28.4 Mbps
Movie name                       : http://torrentsland.com.ua/forum/viewtopic.php?t=4033883
Encoded date                     : UTC 2012-04-22 18:03:16
Writing application              : mkvmerge v4.9.1 ('Ich will') сборка от Jul 11 2011 23:53:15
Writing library                  : libebml v1.2.1 + libmatroska v1.1.1
Video
ID                               : 1
Format                           : AVC
Format/Info                      : Advanced Video Codec
Format profile                   : High@L4.1
Format settings, CABAC           : Yes
Format settings, ReFrames        : 2 frames
Muxing mode                      : Container profile=Unknown@4.1
Codec ID                         : V_MPEG4/ISO/AVC
Duration                         : 1h 28mn
Bit rate mode                    : Variable
Width                            : 1 920 pixels
Height                           : 1 080 pixels
Display aspect ratio             : 16:9
Frame rate                       : 23.976 fps
Color space                      : YUV
Chroma subsampling               : 4:2:0
Bit depth                        : 8 bits
Scan type                        : Progressive
Title                            : Underworld.Awakening.2012.US.2D.BluRay.1080p.AVC.DTS-HD.MA5.1-CHDBits
Language                         : English
Audio #1
ID                               : 2
Format                           : AC-3
Format/Info                      : Audio Coding 3
Mode extension                   : CM (complete main)
Codec ID                         : A_AC3
Duration                         : 1h 28mn
Bit rate mode                    : Constant
Bit rate                         : 640 Kbps
Channel(s)                       : 6 channels
Channel positions                : Front: L C R, Side: L R, LFE
Sampling rate                    : 48.0 KHz
Bit depth                        : 16 bits
Stream size                      : 405 MiB (2%)
Title                            : DUB
Language                         : Russian
Audio #2
ID                               : 3
Format                           : AC-3
Format/Info                      : Audio Coding 3
Mode extension                   : CM (complete main)
Codec ID                         : A_AC3
Duration                         : 1h 28mn
Bit rate mode                    : Constant
Bit rate                         : 640 Kbps
Channel(s)                       : 6 channels
Channel positions                : Front: L C R, Side: L R, LFE
Sampling rate                    : 48.0 KHz
Bit depth                        : 16 bits
Stream size                      : 405 MiB (2%)
Title                            : DUB
Language                         : Ukrainian
Audio #3
ID                               : 4
Format                           : DTS
Format/Info                      : Digital Theater Systems
Format profile                   : MA
Codec ID                         : A_DTS
Duration                         : 1h 28mn
Bit rate mode                    : Variable
Channel(s)                       : 8 channels
Channel positions                : Front: L C R, Side: L R, Back: L R, LFE
Sampling rate                    : 48.0 KHz
Bit depth                        : 16 bits
Language                         : English
Audio #4
ID                               : 5
Format                           : AC-3
Format/Info                      : Audio Coding 3
Format profile                   : Dolby Digital
Mode extension                   : CM (complete main)
Codec ID                         : A_AC3
Duration                         : 1h 28mn
Bit rate mode                    : Constant
Bit rate                         : 192 Kbps
Channel(s)                       : 2 channels
Channel positions                : Front: L R
Sampling rate                    : 48.0 KHz
Bit depth                        : 16 bits
Stream size                      : 122 MiB (1%)
Title                            : Commentary with the Filmmakers
Language                         : English
Text #1
ID                               : 6
Format                           : UTF-8
Codec ID                         : S_TEXT/UTF8
Codec ID/Info                    : UTF-8 Plain Text
Language                         : Russian
Text #2
ID                               : 7
Format                           : UTF-8
Codec ID                         : S_TEXT/UTF8
Codec ID/Info                    : UTF-8 Plain Text
Title                            : Commentary with the Filmmakers
Language                         : Russian
Text #3
ID                               : 8
Format                           : UTF-8
Codec ID                         : S_TEXT/UTF8
Codec ID/Info                    : UTF-8 Plain Text
Title                            : Forced
Language                         : English
Text #4
ID                               : 9
Format                           : UTF-8
Codec ID                         : S_TEXT/UTF8
Codec ID/Info                    : UTF-8 Plain Text
Language                         : English
Text #5
ID                               : 10
Format                           : UTF-8
Codec ID                         : S_TEXT/UTF8
Codec ID/Info                    : UTF-8 Plain Text
Title                            : Commentary with the Filmmakers
Language                         : English
Menu
00:00:00.000                     : en:00:00:00.000
00:04:26.057                     : en:00:04:26.057
00:07:45.340                     : en:00:07:45.340
00:16:20.188                     : en:00:16:20.188
00:21:11.812                     : en:00:21:11.812
00:24:49.988                     : en:00:24:49.988
00:30:29.828                     : en:00:30:29.828
00:35:31.755                     : en:00:35:31.755
00:40:04.944                     : en:00:40:04.944
00:45:23.930                     : en:00:45:23.930
00:52:30.731                     : en:00:52:30.731
00:57:21.563                     : en:00:57:21.563
01:02:53.937                     : en:01:02:53.937
01:07:43.726                     : en:01:07:43.726
01:12:18.501                     : en:01:12:18.501
01:16:41.430                     : en:01:16:41.430
 
Display posts:    
Reply to topic

Current time is: 28-May 05:36

All times are UTC + 2



You cannot post new topics in this forum
You cannot reply to topics in this forum
You cannot edit your posts in this forum
You cannot delete your posts in this forum
You cannot vote in polls in this forum
You cannot attach files in this forum
You cannot download files in this forum