Значит, война / This Means War (МакДжи / McG) [2012, США, боевик, мелодрама, комедия, BDRemux 1080p] [UNRATED] DUB + Ukr + Original Eng + Sub (Rus / Ukr / Eng)

Reply to topic
 
Author
Message

Satyr ®

Gender: Unknown

Longevity: 11 years

Posts: 15402

Reputation: 55 [+] [-]

Satyr · Post 21-Jul-2012 19:33

[Quote] 

Значит, война / This Means War
[UNRATED]
- Страна: США
Жанр: боевик, мелодрама, комедия
Год выпуска: 2012
Продолжительность: 01:44:00
Перевод: Профессиональный (дублированный)
Cубтитры: русские (надписи и пр.), русские (полные), русские (полные - voronine), украинские (надписи и пр.), украинские (полные), английские (forced, full, SDH)
За субтитры большое спасибо - bugariarmando
Оригинальная аудиодорожка: английский-Режиссер: МакДжи / McG
В ролях: Том Харди, Крис Пайн, Риз Уизерспун, Тиль Швайгер, Челси Хэндлер, Джон Пол Руттан, Эбигейл Спенсер, Анджела Бассетт, Розмари Харрис, Джордж Тулиатос-Описание: Два секретных агента, которые к тому же и закадычные друзья, влюбляются в одну и ту же женщину, но ни один не желает уступить другому.
- -Тип релиза: BDRemux 1080p
Исходник: This.Mean.War.2012.2in1.1080p.EUR.Blu-ray.AVC.DTS-HD.MA.5.1
Контейнер: MKV
Видео: MPEG-4 AVC Video / 25.2 Mbps / 1080p / 23.976 fps / 16:9 / High Profile 4.1
Аудио #1: English: DTS-HD Master Audio 5.1 / (48 kHz / 3799 kbps / 24-bit) (DTS Core: 5.1 / 48 kHz / 1509 kbps / 24-bit) - [Original]
Аудио #2: Russian: 48 kHz, DTS, 3/2 (L,C,R,l,r) + LFE ch, ~768.00 kbps avg - [Дубляж] |Blu-Ray CEE|
Аудио #3: Ukrainian: 48 kHz, AC3, 3/2 (L,C,R,l,r) + LFE ch, ~448.00 kbps avg |Blu-Ray CEE|
Формат субтитров: softsub (SRT)
Чаптеры: Сохранены оригинальные чаптеры с Blu-Ray
-

Скриншоты


-

MediaInfo

Format                           : Matroska
File size                        : 21.0 GiB
Duration                         : 1h 44mn
Overall bit rate                 : 28.9 Mbps
Movie name                       : Arifis
Encoded date                     : UTC 2012-06-09 15:04:23
Writing application              : mkvmerge v5.2.1 ('A Far Off Place') built on Jan  2 2012 23:21:10
Writing library                  : libebml v1.2.3 + libmatroska v1.3.0
Video
ID                               : 1
Format                           : AVC
Format/Info                      : Advanced Video Codec
Format profile                   : High@L4.1
Format settings, CABAC           : Yes
Format settings, ReFrames        : 2 frames
Codec ID                         : V_MPEG4/ISO/AVC
Duration                         : 1h 44mn
Bit rate mode                    : Variable
Bit rate                         : 25.2 Mbps
Width                            : 1 920 pixels
Height                           : 1 080 pixels
Display aspect ratio             : 16:9
Frame rate                       : 23.976 fps
Color space                      : YUV
Chroma subsampling               : 4:2:0
Bit depth                        : 8 bits
Scan type                        : Progressive
Bits/(Pixel*Frame)               : 0.507
Stream size                      : 18.3 GiB (87%)
Audio #1
ID                               : 2
Format                           : DTS
Format/Info                      : Digital Theater Systems
Format profile                   : MA / Core
Codec ID                         : A_DTS
Duration                         : 1h 44mn
Bit rate mode                    : Variable
Bit rate                         : 1 873 Kbps / 1 510 Kbps
Channel(s)                       : 6 channels
Channel positions                : Front: L C R, Side: L R, LFE
Sampling rate                    : 48.0 KHz
Bit depth                        : 24 bits
Compression mode                 : Lossless / Lossy
Title                            : DTS-HD MA 5.1 Original @ 3799 kbps
Language                         : English
Audio #2
ID                               : 3
Format                           : DTS
Format/Info                      : Digital Theater Systems
Codec ID                         : A_DTS
Duration                         : 1h 44mn
Bit rate mode                    : Constant
Bit rate                         : 755 Kbps
Channel(s)                       : 6 channels
Channel positions                : Front: L C R, Side: L R, LFE
Sampling rate                    : 48.0 KHz
Bit depth                        : 24 bits
Compression mode                 : Lossy
Stream size                      : 561 MiB (3%)
Title                            : DTS 5.1 @ 768 kbps - Dub
Language                         : Russian
Audio #3
ID                               : 4
Format                           : AC-3
Format/Info                      : Audio Coding 3
Mode extension                   : CM (complete main)
Codec ID                         : A_AC3
Duration                         : 1h 44mn
Bit rate mode                    : Constant
Bit rate                         : 448 Kbps
Channel(s)                       : 6 channels
Channel positions                : Front: L C R, Side: L R, LFE
Sampling rate                    : 48.0 KHz
Bit depth                        : 16 bits
Compression mode                 : Lossy
Stream size                      : 333 MiB (2%)
Title                            : AC3 5.1 @ 448 kbps - Dub
Language                         : Ukrainian
Text #1
ID                               : 5
Format                           : UTF-8
Codec ID                         : S_TEXT/UTF8
Codec ID/Info                    : UTF-8 Plain Text
Title                            : Forced (BD CEE)
Language                         : Russian
Text #2
ID                               : 6
Format                           : UTF-8
Codec ID                         : S_TEXT/UTF8
Codec ID/Info                    : UTF-8 Plain Text
Title                            : Full (BD CEE)
Language                         : Russian
Text #3
ID                               : 7
Format                           : UTF-8
Codec ID                         : S_TEXT/UTF8
Codec ID/Info                    : UTF-8 Plain Text
Title                            : Full (voronine)
Language                         : Russian
Text #4
ID                               : 8
Format                           : UTF-8
Codec ID                         : S_TEXT/UTF8
Codec ID/Info                    : UTF-8 Plain Text
Title                            : Forced (BD CEE)
Language                         : Ukrainian
Text #5
ID                               : 9
Format                           : UTF-8
Codec ID                         : S_TEXT/UTF8
Codec ID/Info                    : UTF-8 Plain Text
Title                            : Full (BD CEE)
Language                         : Ukrainian
Text #6
ID                               : 10
Format                           : UTF-8
Codec ID                         : S_TEXT/UTF8
Codec ID/Info                    : UTF-8 Plain Text
Title                            : Forced
Language                         : English
Text #7
ID                               : 11
Format                           : UTF-8
Codec ID                         : S_TEXT/UTF8
Codec ID/Info                    : UTF-8 Plain Text
Language                         : English
Text #8
ID                               : 12
Format                           : UTF-8
Codec ID                         : S_TEXT/UTF8
Codec ID/Info                    : UTF-8 Plain Text
Title                            : SDH
Language                         : English
Menu
00:00:00.000                     : :Chapter 01
00:06:05.823                     : :Chapter 02
00:11:14.256                     : :Chapter 03
00:15:22.463                     : :Chapter 04
00:18:37.032                     : :Chapter 05
00:22:51.203                     : :Chapter 06
00:24:51.364                     : :Chapter 07
00:28:22.700                     : :Chapter 08
00:32:03.713                     : :Chapter 09
00:37:39.465                     : :Chapter 10
00:42:10.819                     : :Chapter 11
00:45:56.253                     : :Chapter 12
00:48:48.675                     : :Chapter 13
00:52:16.132                     : :Chapter 14
00:57:02.877                     : :Chapter 15
01:03:23.257                     : :Chapter 16
01:08:42.034                     : :Chapter 17
01:16:30.585                     : :Chapter 18
01:19:47.240                     : :Chapter 19
01:23:12.362                     : :Chapter 20
01:28:23.089                     : :Chapter 21
01:33:12.169                     : :Chapter 22
01:37:07.655                     : :Chapter 23
01:38:50.049                     : :Chapter 24
01:43:59.983                     : :Chapter 25
-
[Profile]  [PM] 
Display posts:    
Reply to topic

Current time is: 25-May 20:59

All times are UTC + 2



You cannot post new topics in this forum
You cannot reply to topics in this forum
You cannot edit your posts in this forum
You cannot delete your posts in this forum
You cannot vote in polls in this forum
You cannot attach files in this forum
You cannot download files in this forum