Жених напрокат / Something Borrowed (Люк Гринфилд / Luke Greenfield) [2011, США, драма, мелодрама, комедия, BDRip 1080p] Dub Sub Eng

Reply to topic
 
Author
Message

Satyr ®

Gender: Unknown

Longevity: 11 years

Posts: 15402

Reputation: 55 [+] [-]

Satyr · Post 17-Sep-2012 23:44

[Quote] 

Жених напрокат / Something Borrowed- Страна: США
Жанр: драма, мелодрама, комедия
Год выпуска: 2011
Продолжительность: 01:52:40-Перевод: Профессиональный (дублированный)
Cубтитры: английские
Режиссер: Люк Гринфилд / Luke Greenfield
В ролях: Джиннифер Гудвин, Кейт Хадсон, Колин Эглсфилд, Джон Красински, Стив Хоуи, Эшли Уильямс, Джеффри Пирсон, Джилл Айкенберри, Джонатан Эпштейн, Лея Томпсон-Описание: Легкомысленная невеста, много сил потратившая на то, чтобы привести своего бойфренда к мысли о браке, даже не подозревает, что ее лучшая подруга, успешный адвокат, посвятившая лучшие годы своей жизни карьере, может оказаться в постели с ее женихом, мгновенно завоевав его душу, сердце и тело… Короче, парень попал. Приближается день свадьбы. Кто же пойдет под венец?-Сэмпл 00:08:07: http://multi-up.com/563736
Сэмпл 01:21:48: http://multi-up.com/563740
Тип релиза: BDRip 1080p
Контейнер: MKV
Видео: AVC High Profile 4.1, 1920х1080, 23.976 fps, 9 556 Kbps
Аудио: DTS, 5.1 ch, 1510 Kbps, 48000 Hz - Дубляж
Аудио 2: DTS, 5.1 ch, 1510 Kbps, 48000 Hz - Оригинал
Формат субтитров: softsub (SRT)-

MediaInfo

General
Unique ID : 205047345029188587365858607515164928408 (0x9A42AEA368003AE2A3E012964D56E998)
Complete name : F:\Download\Something.Borrowed.2011.BDRip.x264.1080p.mkv
Format : Matroska
File size : 9.90 GiB
Duration : 1h 52mn
Overall bit rate : 12.6 Mbps
Encoded date : UTC 2011-09-25 14:40:39
Writing application : mkvmerge v2.9.8 ('C'est le bon') built on Aug 13 2009 12:49:06
Writing library : libebml v0.7.7 + libmatroska v0.8.1
Video
ID : 1
Format : AVC
Format/Info : Advanced Video Codec
Format profile : High@L4.1
Format settings, CABAC : Yes
Format settings, ReFrames : 4 frames
Codec ID : V_MPEG4/ISO/AVC
Duration : 1h 52mn
Bit rate : 9 556 Kbps
Width : 1 920 pixels
Height : 1 080 pixels
Display aspect ratio : 16:9
Frame rate : 23.976 fps
Color space : YUV
Chroma subsampling : 4:2:0
Bit depth : 8 bits
Scan type : Progressive
Bits/(Pixel*Frame) : 0.192
Stream size : 7.33 GiB (74%)
Writing library : x264 core 114 r1924 08d04a4
Encoding settings : cabac=1 / ref=4 / deblock=1:-3:-3 / analyse=0x3:0x113 / me=umh / subme=10 / psy=1 / psy_rd=1.05:0.10 / mixed_ref=1 / me_range=32 / chroma_me=1 / trellis=2 / 8x8dct=1 / cqm=2 / deadzone=21,11 / fast_pskip=0 / chroma_qp_offset=-2 / threads=8 / sliced_threads=0 / nr=0 / decimate=1 / interlaced=0 / constrained_intra=0 / bframes=6 / b_pyramid=2 / b_adapt=2 / b_bias=0 / direct=3 / weightb=1 / open_gop=0 / weightp=2 / keyint=250 / keyint_min=23 / scenecut=40 / intra_refresh=0 / rc_lookahead=50 / rc=2pass / mbtree=1 / bitrate=9556 / ratetol=1.0 / qcomp=0.60 / qpmin=1 / qpmax=63 / qpstep=4 / cplxblur=20.0 / qblur=0.5 / vbv_maxrate=40000 / vbv_bufsize=40000 / nal_hrd=none / ip_ratio=1.40 / aq=2:0.70
Language : English
Audio #1
ID : 2
Format : DTS
Format/Info : Digital Theater Systems
Codec ID : A_DTS
Duration : 1h 52mn
Bit rate mode : Constant
Bit rate : 1 510 Kbps
Channel(s) : 6 channels
Channel positions : Front: L C R, Side: L R, LFE
Sampling rate : 48.0 KHz
Bit depth : 24 bits
Compression mode : Lossy
Stream size : 1.19 GiB (12%)
Title : DTS 5.1 @ 1510 Kbps - Дубляж
Language : Russian
Audio #2
ID : 3
Format : DTS
Format/Info : Digital Theater Systems
Codec ID : A_DTS
Duration : 1h 52mn
Bit rate mode : Constant
Bit rate : 1 510 Kbps
Channel(s) : 6 channels
Channel positions : Front: L C R, Side: L R, LFE
Sampling rate : 48.0 KHz
Bit depth : 24 bits
Compression mode : Lossy
Delay relative to video : 33ms
Stream size : 1.19 GiB (12%)
Title : DTS 5.1 @ 1510 Kbps
Language : English
Text
ID : 4
Format : UTF-8
Codec ID : S_TEXT/UTF8
Codec ID/Info : UTF-8 Plain Text
Title : [SDH]
Language : English
-

Скриншоты


[Profile]  [PM] 
Display posts:    
Reply to topic

Current time is: 03-Jun 14:37

All times are UTC + 2



You cannot post new topics in this forum
You cannot reply to topics in this forum
You cannot edit your posts in this forum
You cannot delete your posts in this forum
You cannot vote in polls in this forum
You cannot attach files in this forum
You cannot download files in this forum