Резня / Carnage (Роман Полански / Roman Polanski) [2011, Германия, Франция, Испания, Польша, драма, комедия, BDRip 720p] DUB + Original Eng + Sub Eng

Reply to topic
 
Author
Message

Satyr ®

Gender: Unknown

Longevity: 11 years

Posts: 15402

Reputation: 55 [+] [-]

Satyr · Post 10-Nov-2012 21:50

[Quote] 

Резня / Carnage
--Страна: Германия, Франция, Испания, Польша
Студия: Constantin Film Produktion
Жанр: драма, комедия
Год выпуска: 2011
Продолжительность: 01:19:37--Перевод: Дублированный [НТВ+]
Cубтитры: английские
Оригинальная аудиодорожка: английская--Режиссер: Роман Полански / Roman Polanski
В ролях: Джоди Фостер, Кейт Уинслет, Кристоф Вальц, Джон Си Райли, Элвис Полански, Элиот Бергер, Натан Риппи, Таня Лопер, Джули Адамс--Описание: История двух родительских пар, которые знакомятся после того, как их сыновья сходятся в школьной драке. При этом каждая пара оспаривает родительские навыки другой, вместо того, чтобы разглядеть собственные проблемы.-- | imdb | kinopoisk | Сэмпл--Тип релиза: BDRip 720p [HiDt]
Контейнер: MKV
Видео: 6128 kb/s, 1280x548, 23.976 fps, V_MPEG4/ISO/AVC
Аудио: AC3, 384 kb/s, 5.0, 48 kHz, 16 bits [rus]
Аудио 2: DTS, 1510 kb/s, 5.0, 48 kHz, 24 bits [eng]
Формат субтитров: softsub [SRT]

MediaInfo

General
Complete name : Carnage.2011.D.BDRip.720p.IRONCLUB.mkv
Format : Matroska
File size : 4.46 GiB
Duration : 1h 19mn
Overall bit rate : 8 024 Kbps
Movie name : IRONCLUB
Encoded date : UTC 2012-03-11 17:39:48
Writing application : mkvmerge v4.9.1 ('Ich will') сборка от Jul 11 2011 23:53:15
Writing library : libebml v1.2.1 + libmatroska v1.1.1
Video
ID : 1
Format : AVC
Format/Info : Advanced Video Codec
Format profile : High@L4.1
Format settings, CABAC : Yes
Format settings, ReFrames : 9 frames
Codec ID : V_MPEG4/ISO/AVC
Duration : 1h 19mn
Bit rate : 6 128 Kbps
Width : 1 280 pixels
Height : 548 pixels
Display aspect ratio : 2.35:1
Frame rate : 23.976 fps
Color space : YUV
Chroma subsampling : 4:2:0
Bit depth : 8 bits
Scan type : Progressive
Bits/(Pixel*Frame) : 0.364
Stream size : 3.32 GiB (74%)
Title : x264
Writing library : x264 core 120 r2164 da19765
Encoding settings : cabac=1 / ref=9 / deblock=1:-3:-3 / analyse=0x3:0x113 / me=tesa / subme=11 / psy=1 / psy_rd=1.10:0.01 / mixed_ref=1 / me_range=32 / chroma_me=1 / trellis=2 / 8x8dct=1 / cqm=0 / deadzone=21,11 / fast_pskip=0 / chroma_qp_offset=-3 / threads=12 / sliced_threads=0 / nr=0 / decimate=1 / interlaced=0 / bluray_compat=0 / constrained_intra=0 / bframes=6 / b_pyramid=2 / b_adapt=2 / b_bias=0 / direct=3 / weightb=1 / open_gop=0 / weightp=2 / keyint=240 / keyint_min=23 / scenecut=40 / intra_refresh=0 / rc_lookahead=80 / rc=2pass / mbtree=1 / bitrate=6128 / ratetol=1.0 / qcomp=0.65 / qpmin=0 / qpmax=69 / qpstep=4 / cplxblur=20.0 / qblur=0.5 / vbv_maxrate=40000 / vbv_bufsize=40000 / nal_hrd=none / ip_ratio=1.40 / aq=1:0.80
Language : English
Audio #1
ID : 2
Format : AC-3
Format/Info : Audio Coding 3
Mode extension : CM (complete main)
Codec ID : A_AC3
Duration : 1h 19mn
Bit rate mode : Constant
Bit rate : 384 Kbps
Channel(s) : 5 channels
Channel positions : Front: L C R, Side: L R
Sampling rate : 48.0 KHz
Bit depth : 16 bits
Stream size : 219 MiB (5%)
Title : DUB HTB+
Language : Russian
Audio #2
ID : 3
Format : DTS
Format/Info : Digital Theater Systems
Codec ID : A_DTS
Duration : 1h 19mn
Bit rate mode : Constant
Bit rate : 1 510 Kbps
Channel(s) : 5 channels
Channel positions : Front: L C R, Side: L R
Sampling rate : 48.0 KHz
Bit depth : 24 bits
Stream size : 860 MiB (19%)
Title : Original
Language : English
Text
ID : 4
Format : UTF-8
Codec ID : S_TEXT/UTF8
Codec ID/Info : UTF-8 Plain Text
Title : English
Language : English
Menu
00:00:00.000 : en:Chapter 01
00:06:37.939 : en:Chapter 02
00:09:39.078 : en:Chapter 03
00:14:21.443 : en:Chapter 04
00:19:06.145 : en:Chapter 05
00:23:58.520 : en:Chapter 06
00:28:30.542 : en:Chapter 07
00:33:06.859 : en:Chapter 08
00:37:04.138 : en:Chapter 09
00:41:15.389 : en:Chapter 10
00:45:18.757 : en:Chapter 11
00:49:15.577 : en:Chapter 12
00:52:52.586 : en:Chapter 13
01:00:39.469 : en:Chapter 14
01:06:42.498 : en:Chapter 15
01:11:29.535 : en:Chapter 16

Скриншоты



[Profile]  [PM] 
Display posts:    
Reply to topic

Current time is: 03-Jun 13:35

All times are UTC + 2



You cannot post new topics in this forum
You cannot reply to topics in this forum
You cannot edit your posts in this forum
You cannot delete your posts in this forum
You cannot vote in polls in this forum
You cannot attach files in this forum
You cannot download files in this forum