Восстание планеты обезьян / Rise of the Planet of the Apes (Руперт Уайатт / Rupert Wyatt) [2011, США, Фантастика, боевик, триллер, драма, BDRemux 1080p]

Reply to topic
 
Author
Message

Satyr ®

Online

Gender: Unknown

Longevity: 11 years

Posts: 15402

Reputation: 55 [+] [-]

Satyr · Post 11-Nov-2012 16:33

[Quote] 

Восстание планеты обезьян
Rise of the Planet of the Apes
- Год выхода: 2011
Страна: США | USA
Жанр: фантастика, боевик, триллер, драма
Продолжительность: 01:44:56
Перевод:
  • Профессиональный (Дубляж)
  • Профессиональный (многоголосый, закадровый) студия «Омикрон»
-Режиссер: Руперт Уайатт / Rupert Wyatt

В ролях: Джеймс Франко, Фрида Пинто, Джон Литгоу, Брайан Кокс, Том Фелтон, Дэвид Ойелоуо, Тайлер Лэбин, Джэми Харрис, Дэвид Хьюлетт, Ти Олссон-Описание:
Действие фильма происходит в современном Сан-Франциско и строится вокруг ученого, генетические эксперименты которого привели к возникновению высокоразвитого интеллекта у обезьян. Приматы, осознав свое подчиненное положение, поднимают восстание и лишают человека звания царя природы.-Качество: BDRemux
Формат: MKV
Видео кодек: AVC
Аудио кодек: DTS
Видео: 1920x1080 at 23.976 fps, MPEG-4 AVC, ~25975 kbps avg
Аудио #1: DTS 5.1 / 48 kHz / 768 kbps / 24-bit) Дубляж CEE
Аудио #2: 48 kHz/24-bit, DTS-HD MA 5.1, ~4019.00 kbps avg |Многоголосый закадровый, студия «Омикрон»|
Аудио #3: 48 kHz/24-bit, DTS-HD MA 5.1, ~4008.00 kbps avg |Оригинал, BluRay US|
Аудио #4: 48 kHz, AC3, 2/0 (L,R) ch, ~224.00 kbps avg |Commentary by Director Rupert Wyatt|
Аудио #5: 48 kHz, AC3, 2/0 (L,R) ch, ~224.00 kbps avg |Commentary by Writers Rick Jaffa and Amanda Silver|
Субтитры: Русские (форсированые, полные), Английские


MI

General
Unique ID                        : 178967499246883019052395419078942488471 (0x86A3E2F7606836FBB4A11F6632F77797)
Complete name                    : D:\HD\Rise.of.the.Planet.of.the.Apes.2011.1080p.BDRemux.DTS.Rus.Eng.mkv
Format                           : Matroska
File size                        : 25.7 GiB
Duration                         : 1h 44mn
Overall bit rate                 : 35.1 Mbps
Movie name                       : Rise of the Planet of the Apes (2011) - Released by IRONCLUB
Encoded date                     : UTC 2011-12-04 19:18:09
Writing application              : mkvmerge v4.4.0 ('Die Wiederkehr') сборка от Oct 31 2010 21:52:48
Writing library                  : libebml v1.0.0 + libmatroska v1.0.0
Video
ID                               : 1
Format                           : AVC
Format/Info                      : Advanced Video Codec
Format profile                   : High@L4.1
Format settings, CABAC           : Yes
Format settings, ReFrames        : 4 frames
Muxing mode                      : Container profile=Unknown@0.0
Codec ID                         : V_MPEG4/ISO/AVC
Duration                         : 1h 44mn
Bit rate mode                    : Variable
Bit rate                         : 29.8 Mbps
Maximum bit rate                 : 33.0 Mbps
Width                            : 1 920 pixels
Height                           : 1 080 pixels
Display aspect ratio             : 16:9
Frame rate                       : 23.976 fps
Color space                      : YUV
Chroma subsampling               : 4:2:0
Bit depth                        : 8 bits
Scan type                        : Progressive
Bits/(Pixel*Frame)               : 0.598
Stream size                      : 21.8 GiB (85%)
Language                         : English
Audio #1
ID                               : 2
Format                           : DTS
Format/Info                      : Digital Theater Systems
Codec ID                         : A_DTS
Duration                         : 1h 44mn
Bit rate mode                    : Constant
Bit rate                         : 755 Kbps
Channel(s)                       : 6 channels
Channel positions                : Front: L C R, Side: L R, LFE
Sampling rate                    : 48.0 KHz
Bit depth                        : 24 bits
Compression mode                 : Lossy
Stream size                      : 566 MiB (2%)
Title                            : Дубляж CEE
Language                         : Russian
Audio #2
ID                               : 3
Format                           : DTS
Format/Info                      : Digital Theater Systems
Format profile                   : MA / Core
Codec ID                         : A_DTS
Duration                         : 1h 44mn
Bit rate mode                    : Variable
Bit rate                         : 1 561 Kbps / 1 510 Kbps
Channel(s)                       : 6 channels
Channel positions                : Front: L C R, Side: L R, LFE
Sampling rate                    : 48.0 KHz
Bit depth                        : 24 bits
Compression mode                 : Lossless / Lossy
Title                            : DTS-HD MA 5.1 «Омикрон»
Language                         : Russian
Audio #3
ID                               : 4
Format                           : DTS
Format/Info                      : Digital Theater Systems
Format profile                   : MA / Core
Codec ID                         : A_DTS
Duration                         : 1h 44mn
Bit rate mode                    : Variable
Bit rate                         : 1 858 Kbps / 1 510 Kbps
Channel(s)                       : 6 channels
Channel positions                : Front: L C R, Side: L R, LFE
Sampling rate                    : 48.0 KHz
Bit depth                        : 24 bits
Compression mode                 : Lossless / Lossy
Title                            : DTS-HD MA 5.1
Language                         : English
Audio #4
ID                               : 5
Format                           : AC-3
Format/Info                      : Audio Coding 3
Mode extension                   : CM (complete main)
Codec ID                         : A_AC3
Duration                         : 1h 44mn
Bit rate mode                    : Constant
Bit rate                         : 224 Kbps
Channel(s)                       : 2 channels
Channel positions                : Front: L R
Sampling rate                    : 48.0 KHz
Bit depth                        : 16 bits
Compression mode                 : Lossy
Stream size                      : 168 MiB (1%)
Title                            : |Commentary by Director Rupert Wyatt|
Language                         : English
Audio #5
ID                               : 6
Format                           : AC-3
Format/Info                      : Audio Coding 3
Mode extension                   : CM (complete main)
Codec ID                         : A_AC3
Duration                         : 1h 44mn
Bit rate mode                    : Constant
Bit rate                         : 224 Kbps
Channel(s)                       : 2 channels
Channel positions                : Front: L R
Sampling rate                    : 48.0 KHz
Bit depth                        : 16 bits
Compression mode                 : Lossy
Stream size                      : 168 MiB (1%)
Title                            : |Commentary by Writers Rick Jaffa and Amanda Silver|
Language                         : English
Text #1
ID                               : 7
Format                           : UTF-8
Codec ID                         : S_TEXT/UTF8
Codec ID/Info                    : UTF-8 Plain Text
Title                            : Forced
Language                         : Russian
Text #2
ID                               : 8
Format                           : UTF-8
Codec ID                         : S_TEXT/UTF8
Codec ID/Info                    : UTF-8 Plain Text
Title                            : Full
Language                         : Russian
Text #3
ID                               : 9
Format                           : UTF-8
Codec ID                         : S_TEXT/UTF8
Codec ID/Info                    : UTF-8 Plain Text
Language                         : English
Menu
00:00:00.000                     : :00:00:00.000
00:05:24.407                     : :00:05:24.407
00:09:17.974                     : :00:09:17.974
00:14:19.067                     : :00:14:19.067
00:18:07.545                     : :00:18:07.545
00:20:03.786                     : :00:20:03.786
00:22:38.148                     : :00:22:38.148
00:25:17.015                     : :00:25:17.015
00:29:42.656                     : :00:29:42.656
00:33:38.266                     : :00:33:38.266
00:38:29.098                     : :00:38:29.098
00:41:12.595                     : :00:41:12.595
00:45:19.008                     : :00:45:19.008
00:48:50.177                     : :00:48:50.177
00:52:56.632                     : :00:52:56.632
00:57:30.280                     : :00:57:30.280
00:59:26.730                     : :00:59:26.730
01:01:30.145                     : :01:01:30.145
01:05:03.608                     : :01:05:03.608
01:06:20.268                     : :01:06:20.268
01:09:34.962                     : :01:09:34.962
01:11:15.688                     : :01:11:15.688
01:15:44.123                     : :01:15:44.123
01:18:29.204                     : :01:18:29.204
01:23:09.276                     : :01:23:09.276
01:27:50.390                     : :01:27:50.390
01:33:00.366                     : :01:33:00.366
01:37:08.948                     : :01:37:08.948
[Profile]  [PM] 
Display posts:    
Reply to topic

Current time is: 28-May 05:49

All times are UTC + 2



You cannot post new topics in this forum
You cannot reply to topics in this forum
You cannot edit your posts in this forum
You cannot delete your posts in this forum
You cannot vote in polls in this forum
You cannot attach files in this forum
You cannot download files in this forum