Последнее завещание Нобеля / Nobels testamente (Петер Флинт / Peter Flinth) [2012, Швеция, триллер, драма, криминал, детектив, BDRemux 1080p] Dub (R5) + Original (Swe) + Sub (Rus, Eng)

Reply to topic
 
Author
Message

Satyr ®

Gender: Unknown

Longevity: 11 years

Posts: 15402

Reputation: 55 [+] [-]

Satyr · Post 11-Nov-2012 17:10

[Quote] 

Последнее завещание Нобеля / Nobels testamente
--Страна: Швеция
Студия: Yellow Bird Films AB
Жанр: триллер, драма, криминал, детектив
Год выпуска: 2012
Продолжительность: 01:32:41--Перевод: Профессиональный (дублированный) R5
Cубтитры: русские, английские
Оригинальная аудиодорожка: шведский--Режиссер: Петер Флинт / Peter Flinth
В ролях: Малин Крепин, Бьёрн Чьелльман, Лейф Андре, Кайса Эрнст, Эрик Йоханссон, Феликс Энгстрем, Ричард Ульфзэтер, Андреас Ротлин-Свенссон, Антье Трое, Пер Граффман--Описание: Во время торжественного ужина по случаю вручения Нобелевской премии репортер криминальной хроники Аника Бенгцтон становится невольным свидетелем убийства высокопоставленного чиновника. Полиция запрещает ей оглашать какие-либо подробности по делу, но репортер до мозга костей не в силах противиться журналистскому призванию. Аника начинает самостоятельное расследование, которое приводит ее к страшной разгадке.--imdb | kinopoisk | Сэмпл--Тип релиза: BDRemux 1080p [Nobels.Testamente.2012.SWEDiSH.READ.NFO.NORDiC.COMPLETE.BLURAY-NoSence]
Контейнер: MKV
Видео: MPEG-4 AVC / 24990 kbps / 1920x1080 / 24,00 fps / 16:9 / High Profile 4.1
Аудио: AC3 / 5.1 / 48 kHz / 384 kbps / 16 bits |Dub|
Аудио 2: DTS-HD Master Audio / 5.1 / 48 kHz / 3611 kbps / 24 bits (DTS Core: 5.1 / 48 kHz / 1510 kbps / 24 bits) |original|
Формат субтитров: softsub [SRT]

MediaInfo

General
Unique ID : 245402668565709629979932149122150213300 (0xB89ED5B44B5B523692D7E4B32700A6B4)
Complete name : F:\HD\Последнее завещание Нобеля.2012.Blu-Ray.Remux.(1080p).mkv
Format : Matroska
Format version : Version 2
File size : 18.8 GiB
Duration : 1h 32mn
Overall bit rate mode : Variable
Overall bit rate : 29.0 Mbps
Encoded date : UTC 2012-10-15 17:55:37
Writing application : mkvmerge v5.8.0 ('No Sleep / Pillow') built on Sep 2 2012 15:37:04
Writing library : libebml v1.2.3 + libmatroska v1.3.0
Video
ID : 1
Format : AVC
Format/Info : Advanced Video Codec
Format profile : High@L4.1
Format settings, CABAC : Yes
Format settings, ReFrames : 3 frames
Format settings, GOP : M=3, N=12
Muxing mode : Container profile=Unknown@0.0
Codec ID : V_MPEG4/ISO/AVC
Duration : 1h 32mn
Bit rate mode : Variable
Bit rate : 25.4 Mbps
Maximum bit rate : 35.0 Mbps
Width : 1 920 pixels
Height : 1 080 pixels
Display aspect ratio : 16:9
Frame rate : 24.000 fps
Standard : NTSC
Color space : YUV
Chroma subsampling : 4:2:0
Bit depth : 8 bits
Scan type : Progressive
Bits/(Pixel*Frame) : 0.510
Stream size : 16.4 GiB (88%)
Default : No
Forced : No
Color primaries : BT.709-5, BT.1361, IEC 61966-2-4, SMPTE RP177
Transfer characteristics : BT.709-5, BT.1361
Matrix coefficients : BT.709-5, BT.1361, IEC 61966-2-4 709, SMPTE RP177
Audio #1
ID : 2
Format : AC-3
Format/Info : Audio Coding 3
Mode extension : CM (complete main)
Format settings, Endianness : Big
Codec ID : A_AC3
Duration : 1h 32mn
Bit rate mode : Constant
Bit rate : 384 Kbps
Channel(s) : 6 channels
Channel positions : Front: L C R, Side: L R, LFE
Sampling rate : 48.0 KHz
Bit depth : 16 bits
Compression mode : Lossy
Stream size : 255 MiB (1%)
Language : Russian
Default : Yes
Forced : No
Audio #2
ID : 3
Format : DTS
Format/Info : Digital Theater Systems
Format profile : MA / Core
Codec ID : A_DTS
Duration : 1h 32mn
Bit rate mode : Variable
Bit rate : 2 644 Kbps / 1 510 Kbps
Channel(s) : 6 channels
Channel positions : Front: L C R, Side: L R, LFE
Sampling rate : 48.0 KHz
Bit depth : 24 bits
Compression mode : Lossless / Lossy
Language : Swedish
Default : No
Forced : No
Text #1
ID : 4
Format : UTF-8
Codec ID : S_TEXT/UTF8
Codec ID/Info : UTF-8 Plain Text
Language : Russian
Default : No
Forced : No
Text #2
ID : 5
Format : UTF-8
Codec ID : S_TEXT/UTF8
Codec ID/Info : UTF-8 Plain Text
Language : English
Default : No
Forced : No
Menu
00:00:00.000 : :Chapter 01
00:09:59.958 : :Chapter 02
00:19:59.708 : :Chapter 03
00:30:00.000 : :Chapter 04
00:39:59.791 : :Chapter 05
00:49:59.750 : :Chapter 06
00:59:59.666 : :Chapter 07
01:09:59.750 : :Chapter 08
01:19:59.625 : :Chapter 09
01:29:59.791 : :Chapter 10

Скриншоты


[Profile]  [PM] 
Display posts:    
Reply to topic

Current time is: 25-May 20:12

All times are UTC + 2



You cannot post new topics in this forum
You cannot reply to topics in this forum
You cannot edit your posts in this forum
You cannot delete your posts in this forum
You cannot vote in polls in this forum
You cannot attach files in this forum
You cannot download files in this forum