Космополис / Cosmopolis (Дэвид Кроненберг / David Cronenberg) [2012, Франция, Канада, Португалия, Италия, триллер, драма, BDRemux 1080p] Dub (R5) + Original (Eng) + Sub (Rus, Eng)

Reply to topic
 
Author
Message

Satyr ®

Gender: Unknown

Longevity: 11 years

Posts: 15402

Reputation: 55 [+] [-]

Satyr · Post 11-Nov-2012 19:49

[Quote] 

Космополис / Cosmopolis
--Страна: Франция, Канада, Португалия, Италия
Студия: Alfama Films, Canal+ [fr], France 2 Cinéma, Kinology
Жанр: триллер, драма
Год выпуска: 2012
Продолжительность: 01:48:51--Перевод: Профессиональный (дублированный) R5
Cубтитры: русские (по дубляжу), русские, английские
Оригинальная аудиодорожка: английский--Режиссер: Дэвид Кроненберг / David Cronenberg
В ролях: Роберт Паттинсон, Жюльет Бинош, Сара Гадон, Матье Амальрик, Джей Барушель, Кевин Дюран, К’Наан, Эмили Хэмпшир, Саманта Мортон, Пол Джаматти--Описание: 24 часа из жизни 28-летнего миллиардера-финансиста Эрика Пэкера, который изменяет своей молодой жене, подвергается нападению и разом теряет все свое состояние. Действие ленты будет разворачиваться на Манхэттене в течение одних суток.--imdb | kinopoisk | Сэмпл--Тип релиза: BDRemux 1080p [Cosmopolis 2012 1080p FRE Blu-ray AVC DTS-HD MA 5.1-HDZ]
Контейнер: MKV
Видео: MPEG-4 AVC / 26050 kbps / 1920x1080 / 24,00 fps / 16:9 / High Profile 4.1
Аудио: AC3 / 5.1 / 48 kHz / 384 kbps / 16 bits |Dub|
Аудио 2: DTS-HD Master Audio / 5.1 / 48 kHz / 2030 kbps / 16 bits (DTS Core: 5.1 / 48 kHz / 1510 kbps / 16 bits) |original|
Формат субтитров: softsub [SRT]

MediaInfo

Общее
Уникальный идентификатор : 186386783126676337045620486113639086781 (0x8C38C9E75630748EB66F0F88C8B93ABD)
Полное имя : F:\HD\Космополис.2012.Blu-Ray.Remux.(1080p).mkv
Формат : Matroska
Версия формата : Version 2
Размер файла : 21,6 Гбайт
Продолжительность : 1 ч. 48 м.
Режим общего битрейта : Переменный
Общий поток : 28,5 Мбит/сек
Дата кодирования : UTC 2012-10-16 11:50:14
Программа кодирования : mkvmerge v5.8.0 ('No Sleep / Pillow') built on Sep 2 2012 15:37:04
Библиотека кодирования : libebml v1.2.3 + libmatroska v1.3.0
Видео
Идентификатор : 1
Формат : AVC
Формат/Информация : Advanced Video Codec
Профиль формата : High@L4.1
Параметр CABAC формата : Да
Параметр ReFrames формата : 2 кадра
Параметр GOP формата : M=1, N=5
Режим смешивания : Container profile=Unknown@0.0
Идентификатор кодека : V_MPEG4/ISO/AVC
Продолжительность : 1 ч. 48 м.
Вид битрейта : Переменный
Битрейт : 25,9 Мбит/сек
Максимальный битрейт : 28,1 Мбит/сек
Ширина : 1920 пикселей
Высота : 1080 пикселей
Соотношение сторон : 16:9
Режим частоты кадров : Постоянный
Частота кадров : 24,000 кадра/сек
Цветовое пространство : YUV
Субдискретизация насыщенности : 4:2:0
Битовая глубина : 8 бит
Тип развёртки : Прогрессивная
Бит/(Пиксели*Кадры) : 0.521
Размер потока : 19,7 Гбайт (91%)
Default : Нет
Forced : Нет
Аудио #1
Идентификатор : 2
Формат : AC-3
Формат/Информация : Audio Coding 3
Расширение режима : CM (complete main)
Параметр Endianness формата : Big
Идентификатор кодека : A_AC3
Продолжительность : 1 ч. 48 м.
Вид битрейта : Постоянный
Битрейт : 384 Кбит/сек
Каналы : 6 каналов
Расположение каналов : Front: L C R, Side: L R, LFE
Частота : 48,0 КГц
Битовая глубина : 16 бит
Метод сжатия : С потерями
Размер потока : 299 Мбайт (1%)
Язык : Russian
Default : Да
Forced : Нет
Аудио #2
Идентификатор : 3
Формат : DTS
Формат/Информация : Digital Theater Systems
Профиль формата : MA / Core
Идентификатор кодека : A_DTS
Продолжительность : 1 ч. 48 м.
Вид битрейта : Переменный
Битрейт : 1579 Кбит/сек / 1510 Кбит/сек
Каналы : 6 каналов
Расположение каналов : Front: L C R, Side: L R, LFE
Частота : 48,0 КГц
Битовая глубина : 16 бит
Метод сжатия : Без потерь / Lossy
Язык : English
Default : Нет
Forced : Нет
Текст #1
Идентификатор : 4
Формат : UTF-8
Идентификатор кодека : S_TEXT/UTF8
Идентификатор кодека/Информация : UTF-8 Plain Text
Заголовок : по дубляжу
Язык : Russian
Default : Нет
Forced : Нет
Текст #2
Идентификатор : 5
Формат : UTF-8
Идентификатор кодека : S_TEXT/UTF8
Идентификатор кодека/Информация : UTF-8 Plain Text
Заголовок : Groby
Язык : Russian
Default : Нет
Forced : Нет
Текст #3
Идентификатор : 6
Формат : UTF-8
Идентификатор кодека : S_TEXT/UTF8
Идентификатор кодека/Информация : UTF-8 Plain Text
Язык : English
Default : Нет
Forced : Нет
Меню
00:00:00.000 : :Chapter 01
00:05:55.916 : :Chapter 02
00:13:24.166 : :Chapter 03
00:20:59.000 : :Chapter 04
00:29:11.500 : :Chapter 05
00:35:52.375 : :Chapter 06
00:44:52.541 : :Chapter 07
00:49:30.083 : :Chapter 08
00:56:28.750 : :Chapter 09
01:01:14.041 : :Chapter 10
01:07:30.291 : :Chapter 11
01:17:24.458 : :Chapter 12

Скриншоты


[Profile]  [PM] 
Display posts:    
Reply to topic

Current time is: 03-Jun 14:03

All times are UTC + 2



You cannot post new topics in this forum
You cannot reply to topics in this forum
You cannot edit your posts in this forum
You cannot delete your posts in this forum
You cannot vote in polls in this forum
You cannot attach files in this forum
You cannot download files in this forum