Драйв / Drive (Николас Виндинг Рефн / Nicolas Winding Refn) [2011, США, триллер, драма, криминал, Blu-ray 1080p] DUB + Original (eng)

Reply to topic
 
Author
Message

Satyr ®

Gender: Unknown

Longevity: 11 years

Posts: 15402

Reputation: 55 [+] [-]

Satyr · Post 29-Jan-2013 03:47

[Quote] 

Драйв / Drive
Год выпуска: 2011
Страна: США
Студии: Bold Films, Marc Platt Productions, Odd Lot Entertainment, Seed Productions
Жанр: триллер, драма, криминал
Продолжительность: 01:40:49
Перевод: Профессиональный (дублированный)
Субтитры: нет
Оригинальная аудиодорожка: Английский
Режиссер: Николас Виндинг Рефн / Nicolas Winding Refn
В ролях: Райан Гослинг, Кэри Маллиган, Брайан Крэнстон, Альберт Брукс, Оскар Айзек, Кристина Хендрикс, Рон Перлман, Каден Леос, Джефф Вульф, Джеймс Бибери...
Описание: Великолепный гонщик — при свете дня он выполняет каскадерские трюки на съёмочных площадках Голливуда, а по ночам ведет рискованную игру. Но один опасный контракт — и за его жизнь назначена награда. Теперь, чтобы остаться в живых и спасти свою очаровательную соседку, он должен делать то, что умеет лучше всего — виртуозно уходить от погони...- -релиз группы:
Видео: MPEG-4 AVC Video 14390 kbps 1080p / 23,976 fps / 16:9 / High Profile 4.1
Аудио 1: DTS-HD Master Audio English 1996 kbps 5.1 / 48 kHz / 1996 kbps / 16-bit (DTS Core: 5.1 / 48 kHz / 1509 kbps / 16-bit)
Аудио 2: DTS-HD Master Audio Russian 1892 kbps 5.1 / 48 kHz / 1892 kbps / 16-bit (DTS Core: 5.1 / 48 kHz / 1509 kbps / 16-bit)
Меню: Анимированное

BDInfo

Disc Title: DRIVE_HDCLUB
Disc Size: 15 893 640 444 bytes
Protection: AACS
BD-Java: No
BDInfo: 0.5.6
Notes:
BDINFO HOME:
Cinema Squid
http://www.cinemasquid.com/blu-ray/tools/bdinfo
INCLUDES FORUMS REPORT FOR:
AVS Forum Blu-ray Audio and Video Specifications Thread
http://www.avsforum.com/avs-vb/showthread.php?t=1155731
********************
PLAYLIST: 00003.MPLS
********************
Total   Video
Title                                                           Codec   Length  Movie Size      Disc Size       Bitrate Bitrate Main Audio Track                          Secondary Audio Track
-----                                                           ------  ------- --------------  --------------  ------- ------- ------------------                        ---------------------
00003.MPLS                                                      AVC     1:40:48 14 822 701 056  15 893 640 444  19,60   14,39   DTS-HD Master 5.1 1996Kbps (48kHz/16-bit)
DISC INFO:
Disc Title:     DRIVE_HDCLUB
Disc Size:      15 893 640 444 bytes
Protection:     AACS
BD-Java:        No
BDInfo:         0.5.6
PLAYLIST REPORT:
Name:                   00003.MPLS
Length:                 1:40:48 (h:m:s)
Size:                   14 822 701 056 bytes
Total Bitrate:          19,60 Mbps
VIDEO:
Codec                   Bitrate             Description
-----                   -------             -----------
MPEG-4 AVC Video        14390 kbps          1080p / 23,976 fps / 16:9 / High Profile 4.1
AUDIO:
Codec                           Language        Bitrate         Description
-----                           --------        -------         -----------
DTS-HD Master Audio             English         1996 kbps       5.1 / 48 kHz / 1996 kbps / 16-bit (DTS Core: 5.1 / 48 kHz / 1509 kbps / 16-bit)
DTS-HD Master Audio             Russian         1892 kbps       5.1 / 48 kHz / 1892 kbps / 16-bit (DTS Core: 5.1 / 48 kHz / 1509 kbps / 16-bit)
FILES:
Name            Time In         Length          Size            Total Bitrate
----            -------         ------          ----            -------------
00006.M2TS      0:00:00.000     1:40:48.709     14 822 701 056  19 604
CHAPTERS:
Number          Time In         Length          Avg Video Rate  Max 1-Sec Rate  Max 1-Sec Time  Max 5-Sec Rate  Max 5-Sec Time  Max 10Sec Rate  Max 10Sec Time  Avg Frame Size  Max Frame Size  Max Frame Time
------          -------         ------          --------------  --------------  --------------  --------------  --------------  --------------  --------------  --------------  --------------  --------------
1               0:00:00.000     0:00:24.024     12 639 kbps     32 054 kbps     00:00:08.174    26 834 kbps     00:00:05.547    21 352 kbps     00:00:05.005    65 782 bytes    286 619 bytes   00:00:09.009
2               0:00:24.024     0:10:17.158     15 017 kbps     38 521 kbps     00:00:39.539    35 421 kbps     00:00:38.538    31 183 kbps     00:02:48.918    78 294 bytes    545 800 bytes   00:10:41.182
3               0:10:41.182     0:04:53.334     15 220 kbps     34 547 kbps     00:10:43.225    28 716 kbps     00:10:41.182    22 953 kbps     00:10:41.182    79 348 bytes    455 837 bytes   00:10:42.683
4               0:15:34.516     0:04:53.418     14 966 kbps     25 131 kbps     00:17:27.254    19 346 kbps     00:16:34.576    19 039 kbps     00:17:26.670    78 027 bytes    521 872 bytes   00:16:35.536
5               0:20:27.935     0:05:51.267     15 012 kbps     30 628 kbps     00:22:51.161    19 384 kbps     00:23:31.993    17 216 kbps     00:22:50.952    78 268 bytes    446 622 bytes   00:22:14.791
6               0:26:19.202     0:08:10.865     14 986 kbps     33 099 kbps     00:31:12.370    21 803 kbps     00:27:31.483    19 262 kbps     00:27:31.858    78 132 bytes    522 960 bytes   00:31:12.412
7               0:34:30.068     0:05:27.201     14 952 kbps     26 171 kbps     00:37:56.440    18 179 kbps     00:37:55.439    16 739 kbps     00:37:51.185    77 955 bytes    463 883 bytes   00:37:14.732
8               0:39:57.269     0:06:18.211     15 034 kbps     33 067 kbps     00:40:06.987    24 436 kbps     00:40:06.237    19 927 kbps     00:40:06.195    78 380 bytes    501 105 bytes   00:40:07.154
9               0:46:15.481     0:05:28.578     15 024 kbps     21 739 kbps     00:51:03.060    17 371 kbps     00:49:34.930    16 111 kbps     00:49:33.053    78 330 bytes    441 034 bytes   00:50:27.399
10              0:51:44.059     0:05:52.769     15 007 kbps     32 199 kbps     00:54:46.449    19 427 kbps     00:54:46.449    16 732 kbps     00:54:46.449    78 241 bytes    531 368 bytes   00:54:46.491
11              0:57:36.828     0:07:17.562     14 998 kbps     26 483 kbps     01:03:15.333    22 371 kbps     01:03:12.079    19 929 kbps     01:03:09.327    78 195 bytes    514 129 bytes   01:01:33.189
12              1:04:54.390     0:03:21.159     14 944 kbps     21 266 kbps     01:07:08.733    16 868 kbps     01:05:19.874    15 758 kbps     01:05:17.538    77 909 bytes    470 582 bytes   01:05:20.166
13              1:08:15.549     0:05:42.592     14 988 kbps     24 004 kbps     01:13:35.119    16 809 kbps     01:13:34.118    16 008 kbps     01:08:38.197    78 140 bytes    438 740 bytes   01:13:35.327
14              1:13:58.142     0:05:08.433     15 010 kbps     29 309 kbps     01:18:45.804    26 299 kbps     01:15:10.839    21 073 kbps     01:15:10.339    78 257 bytes    524 531 bytes   01:18:45.846
15              1:19:06.575     0:09:19.600     14 985 kbps     30 599 kbps     01:25:55.358    22 975 kbps     01:25:53.648    18 796 kbps     01:25:53.731    78 122 bytes    521 433 bytes   01:28:14.163
16              1:28:26.175     0:08:13.910     14 238 kbps     28 967 kbps     01:29:59.227    27 435 kbps     01:29:57.725    26 889 kbps     01:29:55.264    74 228 bytes    547 137 bytes   01:33:17.758
17              1:36:40.085     0:04:08.623     1 714 kbps      4 410 kbps      01:39:41.725    3 140 kbps      01:39:37.513    2 822 kbps      01:40:08.752    8 937 bytes     269 023 bytes   01:39:38.013
STREAM DIAGNOSTICS:
File            PID             Type            Codec           Language                Seconds                 Bitrate                 Bytes           Packets
----            ---             ----            -----           --------                --------------          --------------          -------------   -----
00006.M2TS      4113 (0x1011)   0x1B            AVC                                     6048,584                14 391                  10 880 398 624  59 216 055
00006.M2TS      4352 (0x1100)   0x86            DTS-HD MA       rus (Russian)           6048,584                1 892                   1 430 454 128   8 699 464
00006.M2TS      4353 (0x1101)   0x86            DTS-HD MA       eng (English)           6048,584                1 996                   1 509 274 820   9 083 370
QUICK SUMMARY:
Disc Title: DRIVE_HDCLUB
Disc Size: 15 893 640 444 bytes
Protection: AACS
BD-Java: No
Playlist: 00003.MPLS
Size: 14 822 701 056 bytes
Length: 1:40:48
Total Bitrate: 19,60 Mbps
Video: MPEG-4 AVC Video / 14390 kbps / 1080p / 23,976 fps / 16:9 / High Profile 4.1
Audio: English / DTS-HD Master Audio / 5.1 / 48 kHz / 1996 kbps / 16-bit (DTS Core: 5.1 / 48 kHz / 1509 kbps / 16-bit)
Audio: Russian / DTS-HD Master Audio / 5.1 / 48 kHz / 1892 kbps / 16-bit (DTS Core: 5.1 / 48 kHz / 1509 kbps / 16-bit)
********************
PLAYLIST: 00004.MPLS
********************
Total   Video
Title                                                           Codec   Length  Movie Size      Disc Size       Bitrate Bitrate Main Audio Track                          Secondary Audio Track
-----                                                           ------  ------- --------------  --------------  ------- ------- ------------------                        ---------------------
00004.MPLS                                                      AVC     0:07:28 802 738 176     15 893 640 444  14,32   13,63
DISC INFO:
Disc Title:     DRIVE_HDCLUB
Disc Size:      15 893 640 444 bytes
Protection:     AACS
BD-Java:        No
BDInfo:         0.5.6
PLAYLIST REPORT:
Name:                   00004.MPLS
Length:                 0:07:28 (h:m:s)
Size:                   802 738 176 bytes
Total Bitrate:          14,32 Mbps
VIDEO:
Codec                   Bitrate             Description
-----                   -------             -----------
MPEG-4 AVC Video        13633 kbps          1080i / 25 fps / 16:9 / Main Profile 4.1
FILES:
Name            Time In         Length          Size            Total Bitrate
----            -------         ------          ----            -------------
00007.M2TS      0:00:00.000     0:07:28.480     802 738 176     14 319
CHAPTERS:
Number          Time In         Length          Avg Video Rate  Max 1-Sec Rate  Max 1-Sec Time  Max 5-Sec Rate  Max 5-Sec Time  Max 10Sec Rate  Max 10Sec Time  Avg Frame Size  Max Frame Size  Max Frame Time
------          -------         ------          --------------  --------------  --------------  --------------  --------------  --------------  --------------  --------------  --------------  --------------
1               0:00:00.000     0:07:28.480     13 633 kbps     33 837 kbps     00:02:41.039    22 215 kbps     00:07:01.839    19 016 kbps     00:00:30.160    68 166 bytes    330 207 bytes   00:07:02.640
STREAM DIAGNOSTICS:
File            PID             Type            Codec           Language                Seconds                 Bitrate                 Bytes           Packets
----            ---             ----            -----           --------                --------------          --------------          -------------   -----
00007.M2TS      4113 (0x1011)   0x1B            AVC                                     448,320                 13 638                  764 281 156     4 165 895
QUICK SUMMARY:
Disc Title: DRIVE_HDCLUB
Disc Size: 15 893 640 444 bytes
Protection: AACS
BD-Java: No
Playlist: 00004.MPLS
Size: 802 738 176 bytes
Length: 0:07:28
Total Bitrate: 14,32 Mbps
Video: MPEG-4 AVC Video / 13633 kbps / 1080i / 25 fps / 16:9 / Main Profile 4.1
********************
PLAYLIST: 00001.MPLS
********************
Total   Video
Title                                                           Codec   Length  Movie Size      Disc Size       Bitrate Bitrate Main Audio Track                          Secondary Audio Track
-----                                                           ------  ------- --------------  --------------  ------- ------- ------------------                        ---------------------
00001.MPLS                                                      MPEG-2  0:01:01 228 261 888     15 893 640 444  29,82   24,97   LPCM 2.0 1536Kbps (48kHz/16-bit)
DISC INFO:
Disc Title:     DRIVE_HDCLUB
Disc Size:      15 893 640 444 bytes
Protection:     AACS
BD-Java:        No
BDInfo:         0.5.6
PLAYLIST REPORT:
Name:                   00001.MPLS
Length:                 0:01:01 (h:m:s)
Size:                   228 261 888 bytes
Total Bitrate:          29,82 Mbps
VIDEO:
Codec                   Bitrate             Description
-----                   -------             -----------
MPEG-2 Video            24970 kbps          1080i / 25 fps / 16:9
AUDIO:
Codec                           Language        Bitrate         Description
-----                           --------        -------         -----------
LPCM Audio                      English         1536 kbps       2.0 / 48 kHz / 1536 kbps / 16-bit
LPCM Audio                      Russian         1536 kbps       2.0 / 48 kHz / 1536 kbps / 16-bit
FILES:
Name            Time In         Length          Size            Total Bitrate
----            -------         ------          ----            -------------
00002.M2TS      0:00:00.000     0:01:01.240     228 261 888     29 819
CHAPTERS:
Number          Time In         Length          Avg Video Rate  Max 1-Sec Rate  Max 1-Sec Time  Max 5-Sec Rate  Max 5-Sec Time  Max 10Sec Rate  Max 10Sec Time  Avg Frame Size  Max Frame Size  Max Frame Time
------          -------         ------          --------------  --------------  --------------  --------------  --------------  --------------  --------------  --------------  --------------  --------------
1               0:00:00.000     0:01:01.240     24 970 kbps     26 095 kbps     00:00:19.159    25 266 kbps     00:00:15.240    25 133 kbps     00:00:10.200    124 850 bytes   261 849 bytes   00:00:20.159
STREAM DIAGNOSTICS:
File            PID             Type            Codec           Language                Seconds                 Bitrate                 Bytes           Packets
----            ---             ----            -----           --------                --------------          --------------          -------------   -----
00002.M2TS      4113 (0x1011)   0x02            MPEG-2                                  61,200                  24 986                  191 145 756     1 039 802
00002.M2TS      4352 (0x1100)   0x80            LPCM            rus (Russian)           61,200                  1 543                   11 807 072      73 488
00002.M2TS      4353 (0x1101)   0x80            LPCM            eng (English)           61,200                  1 543                   11 807 072      73 488
QUICK SUMMARY:
Disc Title: DRIVE_HDCLUB
Disc Size: 15 893 640 444 bytes
Protection: AACS
BD-Java: No
Playlist: 00001.MPLS
Size: 228 261 888 bytes
Length: 0:01:01
Total Bitrate: 29,82 Mbps
Video: MPEG-2 Video / 24970 kbps / 1080i / 25 fps / 16:9
Audio: English / LPCM Audio / 2.0 / 48 kHz / 1536 kbps / 16-bit
Audio: Russian / LPCM Audio / 2.0 / 48 kHz / 1536 kbps / 16-bit

Скриншоты меню

Скриншоты

Обложка и блин

http://multi-up.com/608918
[Profile]  [PM] 
Display posts:    
Reply to topic

Current time is: 28-May 05:28

All times are UTC + 2



You cannot post new topics in this forum
You cannot reply to topics in this forum
You cannot edit your posts in this forum
You cannot delete your posts in this forum
You cannot vote in polls in this forum
You cannot attach files in this forum
You cannot download files in this forum