Медальон / Stolen (Саймон Уэст / Simon West) [2012, США, боевик, триллер, BDRip 720p] Dub + Original (Eng) + Sub (Rus,Eng)

Reply to topic
 
Author
Message

Satyr ®

Gender: Unknown

Longevity: 11 years

Posts: 15402

Reputation: 55 [+] [-]

Satyr · Post 05-Feb-2013 01:09

[Quote] 

Медальон / Stolen
Страна: США
Жанр: боевик, триллер
Год выпуска: 2012
Продолжительность: 01:35:50
Перевод: Профессиональный (дублированный)
Оригинальная аудиодорожка: английский
Cубтитры: русские (полные), английские (полные)-Режиссер: Саймон Уэст / Simon West
В ролях: Николас Кейдж, Джош Лукас, Дэнни Хьюстон, Малин Акерман, Сами Гэйл, М. К. Гейни, Марк Вэлли, Эдрик Браун, Бэрри Шебака Хенли, Дж.Д. Эвермор-Описание: Уилл Монтгомери (Николас Кейдж) - профессиональный грабитель, настоящий мастер своего дела. Он очень любит свою дочь, и когда Элисон похищают, Уилл готов пойти на всё, чтобы её спасти...-СЭМПЛ
Тип релиза: BDRip 720p
Исходник: Stolen 2012 Blu-Ray disc 1080p
Контейнер: MKV
Видео: 1280x720p / 24.000 fps / 16:9 / High Profile 4.1 / AVC / ~ 6700 Kbps
Аудио 1: DTS / 1510 Kbps / 5.1 / 48 kHz / Russian / Dub
Аудио 2: DTS / 1510 Kbps / 5.1 / 48 kHz / English / Original
Формат субтитров: softsub (SRT)-

MediaInfo / x264 log

General
Complete name : Stolen.2012.BDRip.720p.Dub.mkv
Format : Matroska
Format version : Version 2
File size : 6.50 GiB
Duration : 1h 35mn
Overall bit rate : 9 716 Kbps
Encoded date : UTC 2012-10-06 17:09:30
Writing application : mkvmerge v5.4.0 ('Piper') built on Mar 10 2012 13:34:39
Writing library : libebml v1.2.3 + libmatroska v1.3.0
Video
ID : 1
Format : AVC
Format/Info : Advanced Video Codec
Format profile : High@L4.1
Format settings, CABAC : Yes
Format settings, ReFrames : 9 frames
Codec ID : V_MPEG4/ISO/AVC
Duration : 1h 35mn
Bit rate : 6 700 Kbps
Width : 1 280 pixels
Height : 720 pixels
Display aspect ratio : 16:9
Frame rate : 24.000 fps
Color space : YUV
Chroma subsampling : 4:2:0
Bit depth : 8 bits
Scan type : Progressive
Bits/(Pixel*Frame) : 0.303
Stream size : 4.35 GiB (67%)
Title : Stolen 2012 BDRip 720p
Writing library : x264 core 122 r2184 5c85e0a
Encoding settings : cabac=1 / ref=9 / deblock=1:-3:-3 / analyse=0x3:0x113 / me=umh / subme=11 / psy=1 / psy_rd=1.10:0.00 / mixed_ref=1 / me_range=24 / chroma_me=1 / trellis=2 / 8x8dct=1 / cqm=0 / deadzone=21,11 / fast_pskip=1 / chroma_qp_offset=-2 / threads=6 / sliced_threads=0 / nr=0 / decimate=1 / interlaced=0 / bluray_compat=0 / constrained_intra=0 / bframes=9 / b_pyramid=2 / b_adapt=2 / b_bias=0 / direct=3 / weightb=1 / open_gop=0 / weightp=2 / keyint=250 / keyint_min=24 / scenecut=40 / intra_refresh=0 / rc_lookahead=60 / rc=2pass / mbtree=1 / bitrate=6700 / ratetol=1.0 / qcomp=0.60 / qpmin=0 / qpmax=69 / qpstep=4 / cplxblur=20.0 / qblur=0.5 / ip_ratio=1.40 / aq=1:0.90
Default : Yes
Forced : No
Audio #1
ID : 2
Format : DTS
Format/Info : Digital Theater Systems
Codec ID : A_DTS
Duration : 1h 35mn
Bit rate mode : Constant
Bit rate : 1 510 Kbps
Channel(s) : 6 channels
Channel positions : Front: L C R, Side: L R, LFE
Sampling rate : 48.0 KHz
Bit depth : 24 bits
Compression mode : Lossy
Stream size : 1.01 GiB (16%)
Title : RUS DTS 1510 Kbps 6ch Dub
Language : Russian
Default : Yes
Forced : No
Audio #2
ID : 3
Format : DTS
Format/Info : Digital Theater Systems
Codec ID : A_DTS
Duration : 1h 35mn
Bit rate mode : Constant
Bit rate : 1 510 Kbps
Channel(s) : 6 channels
Channel positions : Front: L C R, Side: L R, LFE
Sampling rate : 48.0 KHz
Bit depth : 24 bits
Compression mode : Lossy
Stream size : 1.01 GiB (16%)
Title : ENG DTS 1510 Kbps 6ch Original
Language : English
Default : No
Forced : No
Text #1
ID : 4
Format : UTF-8
Codec ID : S_TEXT/UTF8
Codec ID/Info : UTF-8 Plain Text
Title : RUS Subtitles Full
Language : Russian
Default : No
Forced : No
Text #2
ID : 5
Format : UTF-8
Codec ID : S_TEXT/UTF8
Codec ID/Info : UTF-8 Plain Text
Title : ENG Subtitles Full
Language : English
Default : No
Forced : No
Menu
00:00:00.000 : en:Chapter 01
00:08:38.916 : en:Chapter 02
00:15:28.083 : en:Chapter 03
00:20:24.708 : en:Chapter 04
00:26:46.083 : en:Chapter 05
00:33:46.500 : en:Chapter 06
00:43:51.083 : en:Chapter 07
00:51:12.916 : en:Chapter 08
00:59:44.416 : en:Chapter 09
01:08:38.291 : en:Chapter 10
01:18:27.916 : en:Chapter 11
01:27:07.500 : en:Chapter 12-x264 [info]: frame I:1380 Avg QP:14.72 size:154186
x264 [info]: frame P:30208 Avg QP:18.15 size: 60052
x264 [info]: frame B:106413 Avg QP:20.44 size: 26175
x264 [info]: consecutive B-frames: 2.6% 2.7% 11.5% 15.7% 14.3% 40.4% 5.6% 1.2% 3.4% 2.6%

Скриншот с названием

Скриншоты



Rip vs. Source



[Profile]  [PM] 
Display posts:    
Reply to topic

Current time is: 03-Jun 15:30

All times are UTC + 2



You cannot post new topics in this forum
You cannot reply to topics in this forum
You cannot edit your posts in this forum
You cannot delete your posts in this forum
You cannot vote in polls in this forum
You cannot attach files in this forum
You cannot download files in this forum